File Size385.1 MB (403,853,225 bytes)
DownloadClickNUpload | Go4Up
  • DownAce
  • FileFactory
  • KatFile
  • Oboom
  • OwnDrives
  • Share-Online
  • SolidFiles
  • TusFiles
  • Uppit
  • UsersCloud
| Jheberg | MultiUp
  • BdUpload
  • DownAce
  • Fichier
  • FileCloud
  • Filerio
  • FilesCdn
  • IndiShare
  • Kbagi
  • Solidfiles
  • Turbobit
  • UpToBox
  • Uppit
| OpenLoad | ZippyShare
Sendspace: Part1, Part2
HashesCRC32: CAB0B4CA, MD5: D5920CE1F39B65BB718CC0F683DA401A, SHA1: 523AB8E3DADC273B1BD6CFF66A0AF1D332BC3547, SHA256: F3CB59D48C9073BBD41B6042ADCB30B91505D0B6709B47D24DFAACE49AA2D867, ED2K: 9E25F065ABDE42519E5B4754E7B1D902
Screenshots
screenshotscreenshotscreenshotscreenshotscreenshot
SubtitlesAll Attachments | eng [ASS]
Additional Info
General
Unique ID                                : 230616334807183089749303233579495239567 (0xAD7F172A27EBD35A90A460AD91FCAF8F)
Complete name                            : [Commie] One-Punch Man - 04 [CAB0B4CA].mkv
Format                                   : Matroska
Format version                           : Version 4
File size                                : 385 MiB
Duration                                 : 24 min 20 s
Overall bit rate                         : 2 213 kb/s
Encoded date                             : UTC 2015-10-28 16:17:02
Writing application                      : mkvmerge v8.3.0 ('Over the Horizon') 64bit
Writing library                          : libebml v1.3.1 + libmatroska v1.4.2
Attachments                              : CentraleSansRnd-ExtraBold.ttf / DISTInkingFxd-Bold.otf / Franchise-Bold-hinted.ttf / ITC Avant Garde Gothic LT Condensed Medium.ttf / JandaManateeSolid.ttf / khmerui.ttf / PTS75F.ttf / PTS76F.ttf

Video
ID                                       : 1
Format                                   : AVC
Format/Info                              : Advanced Video Codec
Format profile                           : High 10@L5
Format settings                          : CABAC / 16 Ref Frames
Format settings, CABAC                   : Yes
Format settings, ReFrames                : 16 frames
Codec ID                                 : V_MPEG4/ISO/AVC
Duration                                 : 24 min 19 s
Bit rate                                 : 2 014 kb/s
Width                                    : 1 280 pixels
Height                                   : 720 pixels
Display aspect ratio                     : 16:9
Frame rate mode                          : Constant
Frame rate                               : 23.976 (24000/1001) FPS
Color space                              : YUV
Chroma subsampling                       : 4:2:0
Bit depth                                : 10 bits
Scan type                                : Progressive
Bits/(Pixel*Frame)                       : 0.091
Stream size                              : 351 MiB (91%)
Writing library                          : x264 core 148 r2597+53 5548565 t_mod_Custom [10-bit@all X86_64]
Encoding settings                        : cabac=1 / ref=16 / deblock=1:0:0 / analyse=0x3:0x133 / me=umh / subme=10 / psy=1 / fade_compensate=0.70 / psy_rd=0.60:0.15 / mixed_ref=1 / me_range=24 / chroma_me=1 / trellis=2 / 8x8dct=1 / cqm=0 / deadzone=21,11 / fast_pskip=1 / chroma_qp_offset=-3 / threads=12 / lookahead_threads=3 / sliced_threads=0 / nr=0 / decimate=1 / interlaced=0 / bluray_compat=0 / constrained_intra=0 / fgo=0 / bframes=10 / b_pyramid=2 / b_adapt=2 / b_bias=0 / direct=3 / weightb=1 / open_gop=0 / weightp=2 / keyint=250 / keyint_min=23 / scenecut=40 / intra_refresh=0 / rc_lookahead=60 / rc=crf / mbtree=1 / crf=18.0000 / qcomp=0.70 / qpmin=0:0:0 / qpmax=81:81:81 / qpstep=4 / ip_ratio=1.40 / aq=3:0.80 / aq-sensitivity=10.00 / aq-factor=1.00:1.00:1.00 / aq2=0 / aq3=0
Language                                 : English
Default                                  : Yes
Forced                                   : No

Audio
ID                                       : 2
Format                                   : AAC LC
Format/Info                              : Advanced Audio Codec Low Complexity
Codec ID                                 : A_AAC-2
Duration                                 : 24 min 20 s
Bit rate                                 : 192 kb/s
Channel(s)                               : 2 channels
Channel layout                           : L R
Sampling rate                            : 48.0 kHz
Frame rate                               : 46.875 FPS (1024 SPF)
Compression mode                         : Lossy
Stream size                              : 32.8 MiB (9%)
Language                                 : Japanese
Default                                  : Yes
Forced                                   : No

Text
ID                                       : 3
Format                                   : ASS
Codec ID                                 : S_TEXT/ASS
Codec ID/Info                            : Advanced Sub Station Alpha
Duration                                 : 24 min 18 s
Bit rate                                 : 165 b/s
Count of elements                        : 423
Compression mode                         : Lossless
Stream size                              : 29.5 KiB (0%)
Language                                 : English
Default                                  : Yes
Forced                                   : No

Menu
00:00:00.000                             : en:Intro
00:01:05.023                             : en:OP
00:02:34.988                             : en:Part A
00:11:44.954                             : en:Part B
00:22:09.995                             : en:ED
00:23:39.960                             : en:Outro
00:23:59.938                             : en:Preview

Other Files in this Torrent
[Commie] One-Punch Man - 04 [CAB0B4CA].mkv
beta
Anime DDL+NZB mirror
Current Time: 23/01/2022 12:00



About/FAQs

Discord