File Size384.8 MB (403,448,011 bytes)
DownloadClickNUpload | Go4Up
  • DownAce
  • FileFactory
  • KatFile
  • Oboom
  • OwnDrives
  • Share-Online
  • SolidFiles
  • TusFiles
  • Uppit
  • UsersCloud
| Jheberg
  • 1Fichier
  • 2Giga
  • BDupload
  • ClicknUpload
  • Filerio
  • FilesCDN
  • FilesUpload
  • Free
  • Nitroflare
  • Nofile
  • Turbobit
  • Uppit
  • Uptobox
| MultiUp
  • BdUpload
  • DownAce
  • Fichier
  • FileCloud
  • Filerio
  • FilesCdn
  • IndiShare
  • Kbagi
  • Solidfiles
  • Turbobit
  • UpToBox
  • Uppit
| OpenLoad | ZippyShare
Sendspace: Part1, Part2
HashesCRC32: AA256C90, MD5: DF3DFCD7761DE9D86F7DBA9E9098DAC7, SHA1: 12252322C1CA1AA9ECCDB12BE785DD2246FE6FEE, SHA256: 6B7A50C7D7897916A2B530F4F72E6CBF831D6D9B1BEEE63387F50D0D51CCE09B, ED2K: 7B1E6A42CCFEA337DFCBFFCC771385E9
Screenshots
screenshotscreenshotscreenshotscreenshotscreenshot
SubtitlesAll Attachments | und [ASS]
Additional Info
General
Unique ID                                : 254975805848283189534097918367012202225 (0xBFD28DD02CC8BEB365654913AC77A6F1)
Complete name                            : [Commie] One-Punch Man - 07 [AA256C90].mkv
Format                                   : Matroska
Format version                           : Version 4
File size                                : 385 MiB
Duration                                 : 24 min 20 s
Overall bit rate                         : 2 210 kb/s
Movie name                               : [Commie] One-Punch Man - 07
Encoded date                             : UTC 2015-11-19 22:32:56
Writing application                      : mkvmerge v7.8.0 (' SERVRHE ') 64bit built on Mar 27 2015 21:20:31
Writing library                          : libebml v1.3.1 + libmatroska v1.4.2
Attachments                              : Franchise-Bold-hinted.ttf / DISTInkingFxd-Bold.otf / PTS75F.ttf / SubClearSans-Bold.ttf / PTS76F.ttf / khmerui.ttf / Brush Strokes.ttf

Video
ID                                       : 1
Format                                   : AVC
Format/Info                              : Advanced Video Codec
Format profile                           : High 10@L5
Format settings                          : CABAC / 10 Ref Frames
Format settings, CABAC                   : Yes
Format settings, ReFrames                : 10 frames
Codec ID                                 : V_MPEG4/ISO/AVC
Duration                                 : 24 min 20 s
Bit rate                                 : 1 944 kb/s
Width                                    : 1 280 pixels
Height                                   : 720 pixels
Display aspect ratio                     : 16:9
Frame rate mode                          : Constant
Frame rate                               : 23.976 (24000/1001) FPS
Color space                              : YUV
Chroma subsampling                       : 4:2:0
Bit depth                                : 10 bits
Scan type                                : Progressive
Bits/(Pixel*Frame)                       : 0.088
Stream size                              : 338 MiB (88%)
Writing library                          : x264 core 142 r2431+42 c69a006 tMod [10-bit@all X86_64]
Encoding settings                        : cabac=1 / ref=10 / deblock=1:0:0 / analyse=0x3:0x133 / me=umh / subme=10 / psy=1 / fade_compensate=0.00 / psy_rd=0.70:0.00 / mixed_ref=1 / me_range=24 / chroma_me=1 / trellis=2 / 8x8dct=1 / cqm=0 / deadzone=21,11 / fast_pskip=1 / chroma_qp_offset=-2 / threads=12 / lookahead_threads=3 / sliced_threads=0 / nr=0 / decimate=1 / interlaced=0 / bluray_compat=0 / constrained_intra=0 / fgo=0 / bframes=12 / b_pyramid=2 / b_adapt=2 / b_bias=0 / direct=3 / weightb=1 / open_gop=0 / weightp=2 / keyint=250 / keyint_min=23 / scenecut=40 / intra_refresh=0 / rc_lookahead=60 / rc=crf / mbtree=1 / crf=16.0000 / qcomp=0.70 / qpmin=0:0:0 / qpmax=81:81:81 / qpstep=4 / ip_ratio=1.40 / aq=3:0.80 / aq-sensitivity=10.00 / aq-factor=1.00:1.00:1.00 / aq2=0 / aq3=0
Language                                 : English
Default                                  : Yes
Forced                                   : No
Color range                              : Limited
Matrix coefficients                      : BT.709

Audio
ID                                       : 2
Format                                   : AAC LC
Format/Info                              : Advanced Audio Codec Low Complexity
Codec ID                                 : A_AAC-2
Duration                                 : 24 min 20 s
Bit rate                                 : 256 kb/s
Channel(s)                               : 2 channels
Channel layout                           : L R
Sampling rate                            : 48.0 kHz
Frame rate                               : 46.875 FPS (1024 SPF)
Compression mode                         : Lossy
Stream size                              : 44.6 MiB (12%)
Default                                  : Yes
Forced                                   : No

Text
ID                                       : 3
Format                                   : ASS
Muxing mode                              : zlib
Codec ID                                 : S_TEXT/ASS
Codec ID/Info                            : Advanced Sub Station Alpha
Duration                                 : 24 min 5 s
Bit rate                                 : 179 b/s
Count of elements                        : 485
Compression mode                         : Lossless
Stream size                              : 31.6 KiB (0%)
Default                                  : Yes
Forced                                   : No

Menu
00:00:00.000                             : en:Intro
00:01:18.970                             : en:OP
00:02:49.020                             : en:Part A
00:11:49.020                             : en:Part B
00:22:12.060                             : en:ED
00:23:42.020                             : en:Outro
00:24:00.040                             : en:Preview

Other Files in this Torrent
[Commie] One-Punch Man - 07 [AA256C90].mkv
beta
Anime DDL+NZB mirror
Current Time: 02/12/2021 23:03



About/FAQs

Discord