File Size668.1 MB (700,541,374 bytes)
DownloadClickNUpload | DownloadGG | KrakenFiles
MultiUp: Part1
  • BdUpload
  • DownAce
  • Fichier
  • FileCloud
  • Filerio
  • FilesCdn
  • IndiShare
  • Kbagi
  • Turbobit
  • UpToBox
  • Uppit
, Part2
  • BdUpload
  • DownAce
  • Fichier
  • FileCloud
  • Filerio
  • FilesCdn
  • IndiShare
  • Kbagi
  • Turbobit
  • UpToBox
  • Uppit

ZippyShare: Part1, Part2
HashesCRC32: 5D89FB92, MD5: F313C161A5584E5FD64FCC38561BB0CA, SHA1: CF6D1B7E9D24EBCC05FFAA0F5F6AC39DF88370FE, SHA256: 3F1DA0305F6B675E0FA986595064F7CDE52BA1C1B2AEE62D482489321B20F4CC, ED2K: BA52F1A787699F7B742112B230F27064
Screenshots
screenshotscreenshotscreenshotscreenshotscreenshot
SubtitlesAll Attachments | Full Subtitles [OZR] [eng, ASS], Signs & Songs [eng, ASS]
Additional Info
General
Unique ID                                : 151249078084296421673123888539897407532 (0x71C9834A6C390713F6F71BF26F57A82C)
Complete name                            : [Breeze] Mob Psycho 100 S01E10 1080p BluRay AV1.mkv
Format                                   : Matroska
Format version                           : Version 4
File size                                : 668 MiB
Duration                                 : 24 min 11 s
Overall bit rate                         : 3 862 kb/s
Movie name                               : Mob.Psycho.100.S01E10.1080p.BluRay.OPUS2.0.x264-Hi10p-Legion
Encoded date                             : UTC 2022-10-23 16:58:43
Writing application                      : mkvmerge v71.1.0 ('Fortitude') 64-bit
Writing library                          : libebml v1.4.4 + libmatroska v1.7.1 / Lavf59.27.100
Attachments                              : Aero Matics Bold.ttf / CONSTANB.TTF / disco.ttf / Montara-Gothic.ttf / Montara-Italic_0.ttf / Psycho Numbers.ttf / RaysHand Regular.ttf

Video
ID                                       : 5
Format                                   : AV1
Format/Info                              : AOMedia Video 1
Format profile                           : Main@L4.0
Codec ID                                 : V_AV1
Duration                                 : 24 min 11 s
Bit rate                                 : 3 388 kb/s
Width                                    : 1 920 pixels
Height                                   : 1 080 pixels
Display aspect ratio                     : 16:9
Frame rate mode                          : Constant
Frame rate                               : 23.976 (24000/1001) FPS
Color space                              : YUV
Chroma subsampling                       : 4:2:0
Bit depth                                : 10 bits
Bits/(Pixel*Frame)                       : 0.068
Stream size                              : 586 MiB (88%)
Default                                  : Yes
Forced                                   : No
Color range                              : Limited

Audio #1
ID                                       : 3
Format                                   : Opus
Codec ID                                 : A_OPUS
Duration                                 : 24 min 11 s
Bit rate                                 : 183 kb/s
Channel(s)                               : 2 channels
Channel layout                           : L R
Sampling rate                            : 48.0 kHz
Frame rate                               : 50.000 FPS (960 SPF)
Bit depth                                : 32 bits
Compression mode                         : Lossy
Stream size                              : 31.7 MiB (5%)
Title                                    : Japanese 2.0 Opus
Writing library                          : opusenc from opus-tools 0.2-28-g5d0ac20
Language                                 : Japanese
Default                                  : Yes
Forced                                   : No
ENCODER_OPTIONS                          : --bitrate 192

Audio #2
ID                                       : 4
Format                                   : Opus
Codec ID                                 : A_OPUS
Duration                                 : 24 min 11 s
Bit rate                                 : 279 kb/s
Channel(s)                               : 6 channels
Channel layout                           : L R C Lb Rb LFE
Sampling rate                            : 48.0 kHz
Frame rate                               : 50.000 FPS (960 SPF)
Bit depth                                : 32 bits
Compression mode                         : Lossy
Stream size                              : 48.3 MiB (7%)
Title                                    : English 2.0 Opus
Writing library                          : opusenc from opus-tools 0.2-28-g5d0ac20
Language                                 : English
Default                                  : No
Forced                                   : No
ENCODER_OPTIONS                          : --bitrate 320

Text #1
ID                                       : 1
Format                                   : ASS
Codec ID                                 : S_TEXT/ASS
Codec ID/Info                            : Advanced Sub Station Alpha
Duration                                 : 24 min 8 s
Bit rate                                 : 1 754 b/s
Count of elements                        : 3260
Compression mode                         : Lossless
Stream size                              : 310 KiB (0%)
Title                                    : Full Subtitles [OZR]
Language                                 : English
Default                                  : Yes
Forced                                   : No

Text #2
ID                                       : 2
Format                                   : ASS
Codec ID                                 : S_TEXT/ASS
Codec ID/Info                            : Advanced Sub Station Alpha
Duration                                 : 23 min 35 s
Bit rate                                 : 1 665 b/s
Count of elements                        : 2876
Compression mode                         : Lossless
Stream size                              : 288 KiB (0%)
Title                                    : Signs & Songs
Language                                 : English
Default                                  : No
Forced                                   : Yes

Menu
00:00:00.007                             : :Intro
00:00:32.017                             : :OP
00:02:01.987                             : :Part A
00:10:22.027                             : :Part B
00:21:42.037                             : :ED
00:23:12.007                             : :Outro
00:23:55.007                             : :Preview

Other Files in this Torrent
[Breeze] Mob Psycho 100 S01E10 1080p BluRay AV1.mkv
beta
Anime DDL+NZB mirror
Current Time: 23/06/2024 14:37



About/FAQs

Discord