File Size674.5 MB (707,246,843 bytes)
DownloadClickNUpload | DownloadGG | KrakenFiles
MultiUp: Part1
  • BdUpload
  • DownAce
  • Fichier
  • FileCloud
  • Filerio
  • FilesCdn
  • IndiShare
  • Kbagi
  • Turbobit
  • UpToBox
  • Uppit
, Part2
  • BdUpload
  • DownAce
  • Fichier
  • FileCloud
  • Filerio
  • FilesCdn
  • IndiShare
  • Kbagi
  • Turbobit
  • UpToBox
  • Uppit

ZippyShare: Part1, Part2
HashesCRC32: B8C6D5EB, MD5: 6550094BF7EA363345BDF86808C38934, SHA1: D2D55C74FDC4E6FE366990F1D3105D2B70A2F7A2, SHA256: 4E798CC3479B9E79D82420E0BC30399382E293BAF991D4F2357B067DD0B7B10D, ED2K: EFB4B60A419F2D71A1DB58F86208446C
Screenshots
screenshotscreenshotscreenshotscreenshotscreenshot
SubtitlesAll Attachments | Full Subtitles [OZR] [eng, ASS], Signs & Songs [eng, ASS]
Additional Info
General
Unique ID                                : 37573625938385414203336860775123878443 (0x1C446AC91F7FF9E85C2C57AC4C11822B)
Complete name                            : [Breeze] Mob Psycho 100 S01E04 1080p BluRay AV1.mkv
Format                                   : Matroska
Format version                           : Version 4
File size                                : 674 MiB
Duration                                 : 24 min 11 s
Overall bit rate                         : 3 899 kb/s
Movie name                               : Mob.Psycho.100.S01E04.1080p.BluRay.OPUS2.0.x264-Hi10p-Legion
Encoded date                             : UTC 2022-10-23 09:45:21
Writing application                      : mkvmerge v71.1.0 ('Fortitude') 64-bit
Writing library                          : libebml v1.4.4 + libmatroska v1.7.1 / Lavf59.27.100
Attachments                              : Aero Matics Bold.ttf / ARCENA.ttf / Brush Strokes.ttf / CONSTANB.TTF / disco.ttf / Eager_Naturalist.ttf / FOTGAKUMARUGOTHICALIASED-2B_0.TTF / Hand Of Sean Pro.otf / Hira v8.ttf / Montara-Gothic.ttf / Montara-Italic_0.ttf / OreMoji-W5.ttf / Psycho Numbers.ttf / RaysHand Regular.ttf / arial.ttf

Video
ID                                       : 5
Format                                   : AV1
Format/Info                              : AOMedia Video 1
Format profile                           : Main@L4.0
Codec ID                                 : V_AV1
Duration                                 : 24 min 11 s
Bit rate                                 : 3 414 kb/s
Width                                    : 1 920 pixels
Height                                   : 1 080 pixels
Display aspect ratio                     : 16:9
Frame rate mode                          : Constant
Frame rate                               : 23.976 (24000/1001) FPS
Color space                              : YUV
Chroma subsampling                       : 4:2:0
Bit depth                                : 10 bits
Bits/(Pixel*Frame)                       : 0.069
Stream size                              : 591 MiB (88%)
Default                                  : Yes
Forced                                   : No
Color range                              : Limited

Audio #1
ID                                       : 3
Format                                   : Opus
Codec ID                                 : A_OPUS
Duration                                 : 24 min 11 s
Bit rate                                 : 187 kb/s
Channel(s)                               : 2 channels
Channel layout                           : L R
Sampling rate                            : 48.0 kHz
Frame rate                               : 50.000 FPS (960 SPF)
Bit depth                                : 32 bits
Compression mode                         : Lossy
Stream size                              : 32.3 MiB (5%)
Title                                    : Japanese 2.0 Opus
Writing library                          : opusenc from opus-tools 0.2-28-g5d0ac20
Language                                 : Japanese
Default                                  : Yes
Forced                                   : No
ENCODER_OPTIONS                          : --bitrate 192

Audio #2
ID                                       : 4
Format                                   : Opus
Codec ID                                 : A_OPUS
Duration                                 : 24 min 11 s
Bit rate                                 : 273 kb/s
Channel(s)                               : 6 channels
Channel layout                           : L R C Lb Rb LFE
Sampling rate                            : 48.0 kHz
Frame rate                               : 50.000 FPS (960 SPF)
Bit depth                                : 32 bits
Compression mode                         : Lossy
Stream size                              : 47.3 MiB (7%)
Title                                    : English 2.0 Opus
Writing library                          : opusenc from opus-tools 0.2-28-g5d0ac20
Language                                 : English
Default                                  : No
Forced                                   : No
ENCODER_OPTIONS                          : --bitrate 320

Text #1
ID                                       : 1
Format                                   : ASS
Codec ID                                 : S_TEXT/ASS
Codec ID/Info                            : Advanced Sub Station Alpha
Duration                                 : 24 min 10 s
Bit rate                                 : 2 581 b/s
Count of elements                        : 4232
Compression mode                         : Lossless
Stream size                              : 457 KiB (0%)
Title                                    : Full Subtitles [OZR]
Language                                 : English
Default                                  : Yes
Forced                                   : No

Text #2
ID                                       : 2
Format                                   : ASS
Codec ID                                 : S_TEXT/ASS
Codec ID/Info                            : Advanced Sub Station Alpha
Duration                                 : 24 min 10 s
Bit rate                                 : 2 438 b/s
Count of elements                        : 3832
Compression mode                         : Lossless
Stream size                              : 432 KiB (0%)
Title                                    : Signs & Songs
Language                                 : English
Default                                  : No
Forced                                   : Yes

Menu
00:00:00.007                             : :Intro
00:00:56.047                             : :OP
00:02:26.007                             : :Part A
00:12:18.017                             : :Part B
00:22:25.037                             : :ED
00:23:55.007                             : :Preview

Other Files in this Torrent
[Breeze] Mob Psycho 100 S01E04 1080p BluRay AV1.mkv
beta
Anime DDL+NZB mirror
Current Time: 20/07/2024 21:23



About/FAQs

Discord