File Size640.5 MB (671,579,847 bytes)
DownloadClickNUpload | DownloadGG | KrakenFiles
MultiUp: Part1
  • BdUpload
  • DownAce
  • Fichier
  • FileCloud
  • Filerio
  • FilesCdn
  • IndiShare
  • Kbagi
  • Turbobit
  • UpToBox
  • Uppit
, Part2
  • BdUpload
  • DownAce
  • Fichier
  • FileCloud
  • Filerio
  • FilesCdn
  • IndiShare
  • Kbagi
  • Turbobit
  • UpToBox
  • Uppit

ZippyShare: Part1, Part2
HashesCRC32: CCF7E382, MD5: 22F30BFF085B01D9E0DD1DF991ECF83C, SHA1: 696094256909BF8A4222E4C4C67043401DBE5B57, SHA256: DED7B3F06BA72ACA13FB8D667D9A0CF1812D7D6B6FD162E45B702992C1936844, ED2K: ECBAEAED3492054361C7D04694D1C139
Screenshots
screenshotscreenshotscreenshotscreenshotscreenshot
SubtitlesAll Attachments | Full Subtitles [OZR] [eng, ASS], Signs & Songs [eng, ASS]
Additional Info
General
Unique ID                                : 205921555482844472510903422401800157545 (0x9AEB0C8A9A7B90B7F519BC5B99A5B969)
Complete name                            : [Breeze] Mob Psycho 100 S01E01 1080p BluRay AV1.mkv
Format                                   : Matroska
Format version                           : Version 4
File size                                : 640 MiB
Duration                                 : 24 min 11 s
Overall bit rate                         : 3 700 kb/s
Movie name                               : Mob.Psycho.100.S01E01.1080p.BluRay.OPUS2.0.x264-Hi10p-Legion
Encoded date                             : UTC 2022-10-23 05:20:00
Writing application                      : mkvmerge v71.1.0 ('Fortitude') 64-bit
Writing library                          : libebml v1.4.4 + libmatroska v1.7.1 / Lavf59.27.100
Attachments                              : Aero Matics Bold.ttf / Aladin Regular.TTF / ArchitectsDaughter.ttf / BrushType.ttf / CONSTANB.TTF / DCPRyuuMoji-W12.ttf / disco.ttf / Hand Of Sean Pro.otf / HannaHandwriting.ttf / IgniteTheLight.ttf / LEHN139.TTF / Montara-Gothic.ttf / Montara-Italic_0.ttf / PaperJohnnyEins-Regular.otf / Psycho Numbers.ttf / RaysHand Regular.ttf / ROCCB___.TTF / arial.ttf

Video
ID                                       : 5
Format                                   : AV1
Format/Info                              : AOMedia Video 1
Format profile                           : Main@L4.0
Codec ID                                 : V_AV1
Duration                                 : 24 min 11 s
Bit rate                                 : 3 205 kb/s
Width                                    : 1 920 pixels
Height                                   : 1 080 pixels
Display aspect ratio                     : 16:9
Frame rate mode                          : Constant
Frame rate                               : 23.976 (24000/1001) FPS
Color space                              : YUV
Chroma subsampling                       : 4:2:0
Bit depth                                : 10 bits
Bits/(Pixel*Frame)                       : 0.064
Stream size                              : 555 MiB (87%)
Default                                  : Yes
Forced                                   : No
Color range                              : Limited

Audio #1
ID                                       : 3
Format                                   : Opus
Codec ID                                 : A_OPUS
Duration                                 : 24 min 11 s
Bit rate                                 : 185 kb/s
Channel(s)                               : 2 channels
Channel layout                           : L R
Sampling rate                            : 48.0 kHz
Frame rate                               : 50.001 FPS (960 SPF)
Bit depth                                : 32 bits
Compression mode                         : Lossy
Stream size                              : 32.1 MiB (5%)
Title                                    : Japanese 2.0 Opus
Writing library                          : opusenc from opus-tools 0.2-28-g5d0ac20
Language                                 : Japanese
Default                                  : Yes
Forced                                   : No
ENCODER_OPTIONS                          : --bitrate 192

Audio #2
ID                                       : 4
Format                                   : Opus
Codec ID                                 : A_OPUS
Duration                                 : 24 min 11 s
Bit rate                                 : 282 kb/s
Channel(s)                               : 6 channels
Channel layout                           : L R C Lb Rb LFE
Sampling rate                            : 48.0 kHz
Frame rate                               : 50.001 FPS (960 SPF)
Bit depth                                : 32 bits
Compression mode                         : Lossy
Stream size                              : 48.8 MiB (8%)
Title                                    : English 2.0 Opus
Writing library                          : opusenc from opus-tools 0.2-28-g5d0ac20
Language                                 : English
Default                                  : No
Forced                                   : No
ENCODER_OPTIONS                          : --bitrate 320

Text #1
ID                                       : 1
Format                                   : ASS
Codec ID                                 : S_TEXT/ASS
Codec ID/Info                            : Advanced Sub Station Alpha
Duration                                 : 22 min 22 s
Bit rate                                 : 4 461 b/s
Count of elements                        : 6368
Compression mode                         : Lossless
Stream size                              : 731 KiB (0%)
Title                                    : Full Subtitles [OZR]
Language                                 : English
Default                                  : Yes
Forced                                   : No

Text #2
ID                                       : 2
Format                                   : ASS
Codec ID                                 : S_TEXT/ASS
Codec ID/Info                            : Advanced Sub Station Alpha
Duration                                 : 21 min 57 s
Bit rate                                 : 4 407 b/s
Count of elements                        : 5982
Compression mode                         : Lossless
Stream size                              : 709 KiB (0%)
Title                                    : Signs & Songs
Language                                 : English
Default                                  : No
Forced                                   : Yes

Menu
00:00:00.007                             : :Intro
00:01:45.347                             : :Part A
00:07:55.007                             : :OP
00:09:24.967                             : :Part B
00:13:10.947                             : :Part C
00:22:25.917                             : :ED
00:23:54.917                             : :Preview

Other Files in this Torrent
[Breeze] Mob Psycho 100 S01E01 1080p BluRay AV1.mkv
beta
Anime DDL+NZB mirror
Current Time: 16/07/2024 14:49



About/FAQs

Discord