File Size701.1 MB (735,174,660 bytes)
DownloadClickNUpload | DownloadGG | KrakenFiles
MultiUp: Part1
  • BdUpload
  • DownAce
  • Fichier
  • FileCloud
  • Filerio
  • FilesCdn
  • IndiShare
  • Kbagi
  • Turbobit
  • UpToBox
  • Uppit
, Part2
  • BdUpload
  • DownAce
  • Fichier
  • FileCloud
  • Filerio
  • FilesCdn
  • IndiShare
  • Kbagi
  • Turbobit
  • UpToBox
  • Uppit

ZippyShare: Part1, Part2
HashesCRC32: 410C4F85, MD5: 175EB5E29FFA5829DCA40F62012B9940, SHA1: DD3FF5A1E51FBE5A59D231B598114D8C53A32458, SHA256: 24D1D5DC4EE106B7259DF9AE3DEE80D1116D9A56484DBDAB1576190EE51060AC, ED2K: 76339EC229FDF5FA4E5A838FF7714A26
Screenshots
screenshotscreenshotscreenshotscreenshotscreenshot
SubtitlesAll Attachments | Full Subtitles [OZR] [eng, ASS], Signs & Songs [eng, ASS]
Additional Info
General
Unique ID                                : 139238599392413019794891479385340446141 (0x68C060F8EF39D428A29D636386D505BD)
Complete name                            : [Breeze] Mob Psycho 100 S01E02 1080p BluRay AV1.mkv
Format                                   : Matroska
Format version                           : Version 4
File size                                : 701 MiB
Duration                                 : 24 min 11 s
Overall bit rate                         : 4 053 kb/s
Movie name                               : Mob.Psycho.100.S01E02.1080p.BluRay.OPUS2.0.x264-Hi10p-Legion
Encoded date                             : UTC 2022-10-23 06:50:43
Writing application                      : mkvmerge v71.1.0 ('Fortitude') 64-bit
Writing library                          : libebml v1.4.4 + libmatroska v1.7.1 / Lavf59.27.100
Attachments                              : Aero Matics Bold.ttf / CALLI.TTF / chalkdust.ttf / CONSTANB.TTF / disco.ttf / FOT-MatissePro-EB-Toaru.ttf / FOTManyoSoshoStdStripped-EB2 (1).otf / HannaHandwriting.ttf / iskpotab.ttf / Montara-Gothic.ttf / Montara-Italic_0.ttf / nrkis.ttf / Psycho Numbers.ttf / RaysHand Regular.ttf / ROCCB___.TTF / arial.ttf

Video
ID                                       : 5
Format                                   : AV1
Format/Info                              : AOMedia Video 1
Format profile                           : Main@L4.0
Codec ID                                 : V_AV1
Duration                                 : 24 min 11 s
Bit rate                                 : 3 556 kb/s
Width                                    : 1 920 pixels
Height                                   : 1 080 pixels
Display aspect ratio                     : 16:9
Frame rate mode                          : Constant
Frame rate                               : 23.976 (24000/1001) FPS
Color space                              : YUV
Chroma subsampling                       : 4:2:0
Bit depth                                : 10 bits
Bits/(Pixel*Frame)                       : 0.072
Stream size                              : 615 MiB (88%)
Default                                  : Yes
Forced                                   : No
Color range                              : Limited

Audio #1
ID                                       : 3
Format                                   : Opus
Codec ID                                 : A_OPUS
Duration                                 : 24 min 11 s
Bit rate                                 : 187 kb/s
Channel(s)                               : 2 channels
Channel layout                           : L R
Sampling rate                            : 48.0 kHz
Frame rate                               : 50.000 FPS (960 SPF)
Bit depth                                : 32 bits
Compression mode                         : Lossy
Stream size                              : 32.4 MiB (5%)
Title                                    : Japanese 2.0 Opus
Writing library                          : opusenc from opus-tools 0.2-28-g5d0ac20
Language                                 : Japanese
Default                                  : Yes
Forced                                   : No
ENCODER_OPTIONS                          : --bitrate 192

Audio #2
ID                                       : 4
Format                                   : Opus
Codec ID                                 : A_OPUS
Duration                                 : 24 min 11 s
Bit rate                                 : 282 kb/s
Channel(s)                               : 6 channels
Channel layout                           : L R C Lb Rb LFE
Sampling rate                            : 48.0 kHz
Frame rate                               : 50.000 FPS (960 SPF)
Bit depth                                : 32 bits
Compression mode                         : Lossy
Stream size                              : 48.8 MiB (7%)
Title                                    : English 2.0 Opus
Writing library                          : opusenc from opus-tools 0.2-28-g5d0ac20
Language                                 : English
Default                                  : No
Forced                                   : No
ENCODER_OPTIONS                          : --bitrate 320

Text #1
ID                                       : 1
Format                                   : ASS
Codec ID                                 : S_TEXT/ASS
Codec ID/Info                            : Advanced Sub Station Alpha
Duration                                 : 24 min 8 s
Bit rate                                 : 3 191 b/s
Count of elements                        : 5273
Compression mode                         : Lossless
Stream size                              : 564 KiB (0%)
Title                                    : Full Subtitles [OZR]
Language                                 : English
Default                                  : Yes
Forced                                   : No

Text #2
ID                                       : 2
Format                                   : ASS
Codec ID                                 : S_TEXT/ASS
Codec ID/Info                            : Advanced Sub Station Alpha
Duration                                 : 23 min 6 s
Bit rate                                 : 3 176 b/s
Count of elements                        : 4839
Compression mode                         : Lossless
Stream size                              : 538 KiB (0%)
Title                                    : Signs & Songs
Language                                 : English
Default                                  : No
Forced                                   : Yes

Menu
00:00:00.007                             : :Intro
00:01:00.967                             : :OP
00:02:31.017                             : :Part A
00:13:21.997                             : :Part B
00:22:10.987                             : :ED
00:23:40.987                             : :Outro
00:23:54.957                             : :Preview

Other Files in this Torrent
[Breeze] Mob Psycho 100 S01E02 1080p BluRay AV1.mkv
beta
Anime DDL+NZB mirror
Current Time: 16/07/2024 15:19



About/FAQs

Discord