File Size632.4 MB (663,108,944 bytes)
DownloadClickNUpload | DownloadGG | KrakenFiles
MultiUp: Part1
  • BdUpload
  • DownAce
  • Fichier
  • FileCloud
  • Filerio
  • FilesCdn
  • IndiShare
  • Kbagi
  • Turbobit
  • UpToBox
  • Uppit
, Part2
  • BdUpload
  • DownAce
  • Fichier
  • FileCloud
  • Filerio
  • FilesCdn
  • IndiShare
  • Kbagi
  • Turbobit
  • UpToBox
  • Uppit

ZippyShare: Part1, Part2
HashesCRC32: 03823D87, MD5: 994D5BFB37B05B04B0A3681E9434F8C4, SHA1: 88ECC8AEE3D3F79EA079A08AEAC91C1A5B8A8B2A, SHA256: F64C95EC3B460C7896E2912908C2870E09BE261C8F9FF0EF472B83062926D97B, ED2K: 8CEC45B5A068493516D10A30DF08F6E8
Screenshots
screenshotscreenshotscreenshotscreenshotscreenshot
SubtitlesAll Attachments | Full Subtitles [OZR] [eng, ASS], Signs & Songs [eng, ASS]
Additional Info
General
Unique ID                                : 18192902729146290020757096928914558732 (0xDAFD35B72BCE08A6F88AAC8838DCF0C)
Complete name                            : [Breeze] Mob Psycho 100 S01E03 1080p BluRay AV1.mkv
Format                                   : Matroska
Format version                           : Version 4
File size                                : 632 MiB
Duration                                 : 24 min 12 s
Overall bit rate                         : 3 653 kb/s
Movie name                               : Mob.Psycho.100.S01E03.1080p.BluRay.OPUS2.0.x264-Hi10p-Legion
Encoded date                             : UTC 2022-10-23 08:19:21
Writing application                      : mkvmerge v71.1.0 ('Fortitude') 64-bit
Writing library                          : libebml v1.4.4 + libmatroska v1.7.1 / Lavf59.27.100
Attachments                              : Aero Matics Bold.ttf / chalkdust.ttf / disco.ttf / HamburgerHeaven.ttf / Hand Of Sean Pro.otf / Montara-Gothic.ttf / Montara-Italic_0.ttf / Psycho Numbers.ttf / RaysHand Regular.ttf / arial.ttf

Video
ID                                       : 5
Format                                   : AV1
Format/Info                              : AOMedia Video 1
Format profile                           : Main@L4.0
Codec ID                                 : V_AV1
Duration                                 : 24 min 12 s
Bit rate                                 : 3 172 kb/s
Width                                    : 1 920 pixels
Height                                   : 1 080 pixels
Display aspect ratio                     : 16:9
Frame rate mode                          : Constant
Frame rate                               : 23.976 (24000/1001) FPS
Color space                              : YUV
Chroma subsampling                       : 4:2:0
Bit depth                                : 10 bits
Bits/(Pixel*Frame)                       : 0.064
Stream size                              : 549 MiB (87%)
Default                                  : Yes
Forced                                   : No
Color range                              : Limited

Audio #1
ID                                       : 3
Format                                   : Opus
Codec ID                                 : A_OPUS
Duration                                 : 24 min 12 s
Bit rate                                 : 187 kb/s
Channel(s)                               : 2 channels
Channel layout                           : L R
Sampling rate                            : 48.0 kHz
Frame rate                               : 50.000 FPS (960 SPF)
Bit depth                                : 32 bits
Compression mode                         : Lossy
Stream size                              : 32.4 MiB (5%)
Title                                    : Japanese 2.0 Opus
Writing library                          : opusenc from opus-tools 0.2-28-g5d0ac20
Language                                 : Japanese
Default                                  : Yes
Forced                                   : No
ENCODER_OPTIONS                          : --bitrate 192

Audio #2
ID                                       : 4
Format                                   : Opus
Codec ID                                 : A_OPUS
Duration                                 : 24 min 12 s
Bit rate                                 : 278 kb/s
Channel(s)                               : 6 channels
Channel layout                           : L R C Lb Rb LFE
Sampling rate                            : 48.0 kHz
Frame rate                               : 50.000 FPS (960 SPF)
Bit depth                                : 32 bits
Compression mode                         : Lossy
Stream size                              : 48.0 MiB (8%)
Title                                    : English 2.0 Opus
Writing library                          : opusenc from opus-tools 0.2-28-g5d0ac20
Language                                 : English
Default                                  : No
Forced                                   : No
ENCODER_OPTIONS                          : --bitrate 320

Text #1
ID                                       : 1
Format                                   : ASS
Codec ID                                 : S_TEXT/ASS
Codec ID/Info                            : Advanced Sub Station Alpha
Duration                                 : 24 min 9 s
Bit rate                                 : 1 272 b/s
Count of elements                        : 2248
Compression mode                         : Lossless
Stream size                              : 225 KiB (0%)
Title                                    : Full Subtitles [OZR]
Language                                 : English
Default                                  : Yes
Forced                                   : No

Text #2
ID                                       : 2
Format                                   : ASS
Codec ID                                 : S_TEXT/ASS
Codec ID/Info                            : Advanced Sub Station Alpha
Duration                                 : 23 min 32 s
Bit rate                                 : 1 164 b/s
Count of elements                        : 1838
Compression mode                         : Lossless
Stream size                              : 201 KiB (0%)
Title                                    : Signs & Songs
Language                                 : English
Default                                  : No
Forced                                   : Yes

Menu
00:00:00.007                             : :Intro
00:00:40.027                             : :OP
00:02:09.987                             : :Part A
00:13:14.987                             : :Part B
00:23:36.947                             : :Outro
00:23:54.957                             : :Preview

Other Files in this Torrent
[Breeze] Mob Psycho 100 S01E03 1080p BluRay AV1.mkv
beta
Anime DDL+NZB mirror
Current Time: 14/07/2024 01:39



About/FAQs

Discord