Battlefield of the Crazy Empresses Episódio 14.mp4


File Size153.3 MB (160,728,482 bytes)
DownloadAnonFiles | ClickNUpload | DownloadGG | MultiUp
  • BdUpload
  • DownAce
  • Fichier
  • FileCloud
  • Filerio
  • FilesCdn
  • IndiShare
  • Kbagi
  • Turbobit
  • UpToBox
  • Uppit
| ZippyShare
HashesCRC32: 50E463B5, MD5: 99A0EAB231D289A52A9D253C8D4B5E12, SHA1: 0724BABDD1473543AC7926360144D61F61070C92, SHA256: 7C20650CA9FF403FC208952E32AC5E77E830A88211011F342864FF9199F3CE3A, ED2K: BBD500607734421F606B34B100C3A16F
Screenshots
screenshotscreenshotscreenshotscreenshotscreenshot
Additional Info
General
Complete name                            : Battlefield of the Crazy Empresses Episódio 14.mp4
Format                                   : MPEG-4
Format profile                           : Base Media
Codec ID                                 : isom (isom/iso2/avc1/mp41)
File size                                : 153 MiB
Duration                                 : 9 min 30 s
Overall bit rate mode                    : Variable
Overall bit rate                         : 2 253 kb/s
Writing application                      : Lavf58.22.100

Video
ID                                       : 1
Format                                   : AVC
Format/Info                              : Advanced Video Codec
Format profile                           : High@L4
Format settings                          : CABAC / 3 Ref Frames
Format settings, CABAC                   : Yes
Format settings, Reference frames        : 3 frames
Codec ID                                 : avc1
Codec ID/Info                            : Advanced Video Coding
Duration                                 : 9 min 30 s
Bit rate                                 : 2 057 kb/s
Width                                    : 1 920 pixels
Height                                   : 1 080 pixels
Display aspect ratio                     : 16:9
Frame rate mode                          : Constant
Frame rate                               : 25.000 FPS
Color space                              : YUV
Chroma subsampling                       : 4:2:0
Bit depth                                : 8 bits
Scan type                                : Progressive
Bits/(Pixel*Frame)                       : 0.040
Stream size                              : 140 MiB (91%)
Color range                              : Limited
Color primaries                          : BT.709
Transfer characteristics                 : BT.709
Matrix coefficients                      : BT.709
Codec configuration box                  : avcC

Audio
ID                                       : 2
Format                                   : AAC LC
Format/Info                              : Advanced Audio Codec Low Complexity
Codec ID                                 : mp4a-40-2
Duration                                 : 9 min 30 s
Bit rate mode                            : Constant
Bit rate                                 : 192 kb/s
Channel(s)                               : 2 channels
Channel layout                           : L R
Sampling rate                            : 44.1 kHz
Frame rate                               : 43.066 FPS (1024 SPF)
Compression mode                         : Lossy
Stream size                              : 12.9 MiB (8%)
Default                                  : Yes
Alternate group                          : 1

Text #1
ID                                       : 3
Format                                   : Timed Text
Muxing mode                              : sbtl
Codec ID                                 : tx3g
Duration                                 : 9 min 6 s
Bit rate mode                            : Variable
Bit rate                                 : 86 b/s
Stream size                              : 5.75 KiB (0%)
Title                                    : English
Default                                  : Yes
Forced                                   : No
Alternate group                          : 3

Text #2
ID                                       : 4
Format                                   : Timed Text
Muxing mode                              : sbtl
Codec ID                                 : tx3g
Duration                                 : 8 min 52 s
Bit rate mode                            : Variable
Bit rate                                 : 86 b/s
Stream size                              : 5.60 KiB (0%)
Title                                    : Bahasa Indonesia
Default                                  : No
Forced                                   : No
Alternate group                          : 3

Text #3
ID                                       : 5
Format                                   : Timed Text
Muxing mode                              : sbtl
Codec ID                                 : tx3g
Duration                                 : 8 min 52 s
Bit rate mode                            : Variable
Bit rate                                 : 111 b/s
Stream size                              : 7.21 KiB (0%)
Title                                    : Vietnamese
Default                                  : No
Forced                                   : No
Alternate group                          : 3

Text #4
ID                                       : 6
Format                                   : Timed Text
Muxing mode                              : sbtl
Codec ID                                 : tx3g
Duration                                 : 9 min 6 s
Bit rate mode                            : Variable
Bit rate                                 : 97 b/s
Stream size                              : 6.44 KiB (0%)
Title                                    : Bahasa Malaysia
Default                                  : No
Forced                                   : No
Alternate group                          : 3

Text #5
ID                                       : 7
Format                                   : Timed Text
Muxing mode                              : sbtl
Codec ID                                 : tx3g
Duration                                 : 8 min 52 s
Bit rate mode                            : Variable
Bit rate                                 : 207 b/s
Stream size                              : 13.5 KiB (0%)
Title                                    : Thai
Default                                  : No
Forced                                   : No
Alternate group                          : 3

Other Files in this Torrent
Battlefield of the Crazy Empresses Episódio 14.mp4
beta
Anime DDL+NZB mirror
Current Time: 20/05/2022 05:05



About/FAQs

Discord