Battlefield of the Crazy Empresses Episódio 13.mp4


File Size131.0 MB (137,376,022 bytes)
DownloadAnonFiles | ClickNUpload | DownloadGG | MultiUp
  • BdUpload
  • DownAce
  • Fichier
  • FileCloud
  • Filerio
  • FilesCdn
  • IndiShare
  • Kbagi
  • Turbobit
  • UpToBox
  • Uppit
| ZippyShare
HashesCRC32: 452FFFFB, MD5: AF6D7C6F90BC8AAB0232B7FE164BBB9A, SHA1: 857C81C9E2904EB10C77ECD377D969B9082A65D5, SHA256: F4B2381EAE3FA323EBC9F42BFCCBC12110CFC15C0B28164A765259DDB3BE0871, ED2K: DE3D698B0589205C6D31842A0C326616
Screenshots
screenshotscreenshotscreenshotscreenshotscreenshot
Additional Info
General
Complete name                            : Battlefield of the Crazy Empresses Episódio 13.mp4
Format                                   : MPEG-4
Format profile                           : Base Media
Codec ID                                 : isom (isom/iso2/avc1/mp41)
File size                                : 131 MiB
Duration                                 : 9 min 6 s
Overall bit rate mode                    : Variable
Overall bit rate                         : 2 011 kb/s
Writing application                      : Lavf58.22.100

Video
ID                                       : 1
Format                                   : AVC
Format/Info                              : Advanced Video Codec
Format profile                           : High@L4
Format settings                          : CABAC / 3 Ref Frames
Format settings, CABAC                   : Yes
Format settings, Reference frames        : 3 frames
Codec ID                                 : avc1
Codec ID/Info                            : Advanced Video Coding
Duration                                 : 9 min 6 s
Bit rate                                 : 1 814 kb/s
Width                                    : 1 920 pixels
Height                                   : 1 080 pixels
Display aspect ratio                     : 16:9
Frame rate mode                          : Constant
Frame rate                               : 25.000 FPS
Color space                              : YUV
Chroma subsampling                       : 4:2:0
Bit depth                                : 8 bits
Scan type                                : Progressive
Bits/(Pixel*Frame)                       : 0.035
Stream size                              : 118 MiB (90%)
Color range                              : Limited
Color primaries                          : BT.709
Transfer characteristics                 : BT.709
Matrix coefficients                      : BT.709
Codec configuration box                  : avcC

Audio
ID                                       : 2
Format                                   : AAC LC
Format/Info                              : Advanced Audio Codec Low Complexity
Codec ID                                 : mp4a-40-2
Duration                                 : 9 min 6 s
Bit rate mode                            : Constant
Bit rate                                 : 192 kb/s
Channel(s)                               : 2 channels
Channel layout                           : L R
Sampling rate                            : 44.1 kHz
Frame rate                               : 43.066 FPS (1024 SPF)
Compression mode                         : Lossy
Stream size                              : 12.4 MiB (9%)
Default                                  : Yes
Alternate group                          : 1

Text #1
ID                                       : 3
Format                                   : Timed Text
Muxing mode                              : sbtl
Codec ID                                 : tx3g
Duration                                 : 8 min 42 s
Bit rate mode                            : Variable
Bit rate                                 : 91 b/s
Stream size                              : 5.80 KiB (0%)
Title                                    : English
Default                                  : Yes
Forced                                   : No
Alternate group                          : 3

Text #2
ID                                       : 4
Format                                   : Timed Text
Muxing mode                              : sbtl
Codec ID                                 : tx3g
Duration                                 : 8 min 42 s
Bit rate mode                            : Variable
Bit rate                                 : 97 b/s
Stream size                              : 6.21 KiB (0%)
Title                                    : Bahasa Malaysia
Default                                  : No
Forced                                   : No
Alternate group                          : 3

Text #3
ID                                       : 5
Format                                   : Timed Text
Muxing mode                              : sbtl
Codec ID                                 : tx3g
Duration                                 : 8 min 32 s
Bit rate mode                            : Variable
Bit rate                                 : 213 b/s
Stream size                              : 13.3 KiB (0%)
Title                                    : Thai
Default                                  : No
Forced                                   : No
Alternate group                          : 3

Text #4
ID                                       : 6
Format                                   : Timed Text
Muxing mode                              : sbtl
Codec ID                                 : tx3g
Duration                                 : 8 min 32 s
Bit rate mode                            : Variable
Bit rate                                 : 88 b/s
Stream size                              : 5.47 KiB (0%)
Title                                    : Bahasa Indonesia
Default                                  : No
Forced                                   : No
Alternate group                          : 3

Text #5
ID                                       : 7
Format                                   : Timed Text
Muxing mode                              : sbtl
Codec ID                                 : tx3g
Duration                                 : 8 min 32 s
Bit rate mode                            : Variable
Bit rate                                 : 111 b/s
Stream size                              : 6.95 KiB (0%)
Title                                    : Vietnamese
Default                                  : No
Forced                                   : No
Alternate group                          : 3

Other Files in this Torrent
Battlefield of the Crazy Empresses Episódio 13.mp4
beta
Anime DDL+NZB mirror
Current Time: 20/05/2022 04:10



About/FAQs

Discord