Battlefield of the Crazy Empresses Episódio 01.mp4


File Size125.4 MB (131,489,199 bytes)
DownloadAnonFiles | ClickNUpload | DownloadGG | MultiUp
  • BdUpload
  • DownAce
  • Fichier
  • FileCloud
  • Filerio
  • FilesCdn
  • IndiShare
  • Kbagi
  • Turbobit
  • UpToBox
  • Uppit
| ZippyShare
HashesCRC32: A71796B2, MD5: 84B7262C260B75FB3B966E9F435A4641, SHA1: EAC842A5AEE6A239F1326C5733173DFA96545351, SHA256: 69B1773AADF08C691AF98385B7B90CAAE8DE8750FDA45D0835C7F3D2FF19D154, ED2K: B2F221C63637FD0917CBB4637EAC5EA4
Screenshots
screenshotscreenshotscreenshotscreenshotscreenshot
Additional Info
General
Complete name                            : Battlefield of the Crazy Empresses Episódio 01.mp4
Format                                   : MPEG-4
Format profile                           : Base Media
Codec ID                                 : isom (isom/iso2/avc1/mp41)
File size                                : 125 MiB
Duration                                 : 8 min 32 s
Overall bit rate mode                    : Variable
Overall bit rate                         : 2 054 kb/s
Writing application                      : Lavf58.22.100

Video
ID                                       : 1
Format                                   : AVC
Format/Info                              : Advanced Video Codec
Format profile                           : High@L4
Format settings                          : CABAC / 3 Ref Frames
Format settings, CABAC                   : Yes
Format settings, Reference frames        : 3 frames
Codec ID                                 : avc1
Codec ID/Info                            : Advanced Video Coding
Duration                                 : 8 min 31 s
Bit rate                                 : 1 857 kb/s
Width                                    : 1 920 pixels
Height                                   : 1 080 pixels
Display aspect ratio                     : 16:9
Frame rate mode                          : Constant
Frame rate                               : 25.000 FPS
Color space                              : YUV
Chroma subsampling                       : 4:2:0
Bit depth                                : 8 bits
Scan type                                : Progressive
Bits/(Pixel*Frame)                       : 0.036
Stream size                              : 113 MiB (90%)
Color range                              : Limited
Color primaries                          : BT.709
Transfer characteristics                 : BT.709
Matrix coefficients                      : BT.709
Codec configuration box                  : avcC

Audio
ID                                       : 2
Format                                   : AAC LC
Format/Info                              : Advanced Audio Codec Low Complexity
Codec ID                                 : mp4a-40-2
Duration                                 : 8 min 32 s
Bit rate mode                            : Constant
Bit rate                                 : 192 kb/s
Channel(s)                               : 2 channels
Channel layout                           : L R
Sampling rate                            : 44.1 kHz
Frame rate                               : 43.066 FPS (1024 SPF)
Compression mode                         : Lossy
Stream size                              : 11.6 MiB (9%)
Default                                  : Yes
Alternate group                          : 1

Text #1
ID                                       : 3
Format                                   : Timed Text
Muxing mode                              : sbtl
Codec ID                                 : tx3g
Duration                                 : 8 min 7 s
Bit rate mode                            : Variable
Bit rate                                 : 80 b/s
Stream size                              : 4.74 KiB (0%)
Title                                    : English
Default                                  : Yes
Forced                                   : No
Alternate group                          : 3

Text #2
ID                                       : 4
Format                                   : Timed Text
Muxing mode                              : sbtl
Codec ID                                 : tx3g
Duration                                 : 7 min 55 s
Bit rate mode                            : Variable
Bit rate                                 : 102 b/s
Stream size                              : 5.94 KiB (0%)
Title                                    : Vietnamese
Default                                  : No
Forced                                   : No
Alternate group                          : 3

Text #3
ID                                       : 5
Format                                   : Timed Text
Muxing mode                              : sbtl
Codec ID                                 : tx3g
Duration                                 : 7 min 55 s
Bit rate mode                            : Variable
Bit rate                                 : 210 b/s
Stream size                              : 12.2 KiB (0%)
Title                                    : Thai
Default                                  : No
Forced                                   : No
Alternate group                          : 3

Text #4
ID                                       : 6
Format                                   : Timed Text
Muxing mode                              : sbtl
Codec ID                                 : tx3g
Duration                                 : 8 min 7 s
Bit rate mode                            : Variable
Bit rate                                 : 93 b/s
Stream size                              : 5.52 KiB (0%)
Title                                    : Bahasa Malaysia
Default                                  : No
Forced                                   : No
Alternate group                          : 3

Text #5
ID                                       : 7
Format                                   : Timed Text
Muxing mode                              : sbtl
Codec ID                                 : tx3g
Duration                                 : 7 min 55 s
Bit rate mode                            : Variable
Bit rate                                 : 82 b/s
Stream size                              : 4.79 KiB (0%)
Title                                    : Bahasa Indonesia
Default                                  : No
Forced                                   : No
Alternate group                          : 3

Other Files in this Torrent
Battlefield of the Crazy Empresses Episódio 01.mp4
beta
Anime DDL+NZB mirror
Current Time: 20/05/2022 03:46



About/FAQs

Discord