Battlefield of the Crazy Empresses Episódio 05.mp4


File Size124.1 MB (130,096,486 bytes)
DownloadAnonFiles | ClickNUpload | DownloadGG | MultiUp
  • BdUpload
  • DownAce
  • Fichier
  • FileCloud
  • Filerio
  • FilesCdn
  • IndiShare
  • Kbagi
  • Turbobit
  • UpToBox
  • Uppit
| ZippyShare
HashesCRC32: 76974588, MD5: A874C270A59D04DAE2569200ED0E0CE0, SHA1: 3BE2720E602412F251CDA71E7CBE8818ABBCE144, SHA256: 5787FFD65A809BA94592E4BF2E3E471B63B1910B3A73B393034E6FDE79DD7BFC, ED2K: B5168C1C5D2EB38CE728A24C4B3AB967
Screenshots
screenshotscreenshotscreenshotscreenshotscreenshot
Additional Info
General
Complete name                            : Battlefield of the Crazy Empresses Episódio 05.mp4
Format                                   : MPEG-4
Format profile                           : Base Media
Codec ID                                 : isom (isom/iso2/avc1/mp41)
File size                                : 124 MiB
Duration                                 : 8 min 7 s
Overall bit rate mode                    : Variable
Overall bit rate                         : 2 134 kb/s
Writing application                      : Lavf58.22.100

Video
ID                                       : 1
Format                                   : AVC
Format/Info                              : Advanced Video Codec
Format profile                           : High@L4
Format settings                          : CABAC / 3 Ref Frames
Format settings, CABAC                   : Yes
Format settings, Reference frames        : 3 frames
Codec ID                                 : avc1
Codec ID/Info                            : Advanced Video Coding
Duration                                 : 8 min 7 s
Bit rate                                 : 1 937 kb/s
Width                                    : 1 920 pixels
Height                                   : 1 080 pixels
Display aspect ratio                     : 16:9
Frame rate mode                          : Constant
Frame rate                               : 25.000 FPS
Color space                              : YUV
Chroma subsampling                       : 4:2:0
Bit depth                                : 8 bits
Scan type                                : Progressive
Bits/(Pixel*Frame)                       : 0.037
Stream size                              : 113 MiB (91%)
Color range                              : Limited
Color primaries                          : BT.709
Transfer characteristics                 : BT.709
Matrix coefficients                      : BT.709
Codec configuration box                  : avcC

Audio
ID                                       : 2
Format                                   : AAC LC
Format/Info                              : Advanced Audio Codec Low Complexity
Codec ID                                 : mp4a-40-2
Duration                                 : 8 min 7 s
Bit rate mode                            : Constant
Bit rate                                 : 192 kb/s
Channel(s)                               : 2 channels
Channel layout                           : L R
Sampling rate                            : 44.1 kHz
Frame rate                               : 43.066 FPS (1024 SPF)
Compression mode                         : Lossy
Stream size                              : 11.0 MiB (9%)
Default                                  : Yes
Alternate group                          : 1

Text #1
ID                                       : 3
Format                                   : Timed Text
Muxing mode                              : sbtl
Codec ID                                 : tx3g
Duration                                 : 7 min 42 s
Bit rate mode                            : Variable
Bit rate                                 : 88 b/s
Stream size                              : 4.97 KiB (0%)
Title                                    : English
Default                                  : Yes
Forced                                   : No
Alternate group                          : 3

Text #2
ID                                       : 4
Format                                   : Timed Text
Muxing mode                              : sbtl
Codec ID                                 : tx3g
Duration                                 : 7 min 43 s
Bit rate mode                            : Variable
Bit rate                                 : 95 b/s
Stream size                              : 5.38 KiB (0%)
Title                                    : Bahasa Malaysia
Default                                  : No
Forced                                   : No
Alternate group                          : 3

Text #3
ID                                       : 5
Format                                   : Timed Text
Muxing mode                              : sbtl
Codec ID                                 : tx3g
Duration                                 : 7 min 34 s
Bit rate mode                            : Variable
Bit rate                                 : 116 b/s
Stream size                              : 6.42 KiB (0%)
Title                                    : Vietnamese
Default                                  : No
Forced                                   : No
Alternate group                          : 3

Text #4
ID                                       : 6
Format                                   : Timed Text
Muxing mode                              : sbtl
Codec ID                                 : tx3g
Duration                                 : 7 min 34 s
Bit rate mode                            : Variable
Bit rate                                 : 88 b/s
Stream size                              : 4.90 KiB (0%)
Title                                    : Bahasa Indonesia
Default                                  : No
Forced                                   : No
Alternate group                          : 3

Text #5
ID                                       : 7
Format                                   : Timed Text
Muxing mode                              : sbtl
Codec ID                                 : tx3g
Duration                                 : 7 min 34 s
Bit rate mode                            : Variable
Bit rate                                 : 226 b/s
Stream size                              : 12.5 KiB (0%)
Title                                    : Thai
Default                                  : No
Forced                                   : No
Alternate group                          : 3

Other Files in this Torrent
Battlefield of the Crazy Empresses Episódio 05.mp4
beta
Anime DDL+NZB mirror
Current Time: 20/05/2022 03:29



About/FAQs

Discord