Battlefield of the Crazy Empresses Episódio 09.mp4


File Size115.2 MB (120,820,913 bytes)
DownloadAnonFiles | ClickNUpload | DownloadGG | MultiUp
  • BdUpload
  • DownAce
  • Fichier
  • FileCloud
  • Filerio
  • FilesCdn
  • IndiShare
  • Kbagi
  • Turbobit
  • UpToBox
  • Uppit
| ZippyShare
HashesCRC32: DFFADEE4, MD5: D915AF3C488E2BB2C9ACA559E69FB43B, SHA1: A6CA35B198BE42CBD10E0552FA543A117353413A, SHA256: F98593135E8A041E485EAC1C505986761FD2BB259C0F883ED890F673AD87E2F2, ED2K: EC7081CBD6C7BCF478521F3B7E75CCFA
Screenshots
screenshotscreenshotscreenshotscreenshotscreenshot
Additional Info
General
Complete name                            : Battlefield of the Crazy Empresses Episódio 09.mp4
Format                                   : MPEG-4
Format profile                           : Base Media
Codec ID                                 : isom (isom/iso2/avc1/mp41)
File size                                : 115 MiB
Duration                                 : 7 min 55 s
Overall bit rate mode                    : Variable
Overall bit rate                         : 2 033 kb/s
Writing application                      : Lavf58.22.100

Video
ID                                       : 1
Format                                   : AVC
Format/Info                              : Advanced Video Codec
Format profile                           : High@L4
Format settings                          : CABAC / 3 Ref Frames
Format settings, CABAC                   : Yes
Format settings, Reference frames        : 3 frames
Codec ID                                 : avc1
Codec ID/Info                            : Advanced Video Coding
Duration                                 : 7 min 55 s
Bit rate                                 : 1 836 kb/s
Width                                    : 1 920 pixels
Height                                   : 1 080 pixels
Display aspect ratio                     : 16:9
Frame rate mode                          : Constant
Frame rate                               : 25.000 FPS
Color space                              : YUV
Chroma subsampling                       : 4:2:0
Bit depth                                : 8 bits
Scan type                                : Progressive
Bits/(Pixel*Frame)                       : 0.035
Stream size                              : 104 MiB (90%)
Color range                              : Limited
Color primaries                          : BT.709
Transfer characteristics                 : BT.709
Matrix coefficients                      : BT.709
Codec configuration box                  : avcC

Audio
ID                                       : 2
Format                                   : AAC LC
Format/Info                              : Advanced Audio Codec Low Complexity
Codec ID                                 : mp4a-40-2
Duration                                 : 7 min 55 s
Bit rate mode                            : Constant
Bit rate                                 : 192 kb/s
Channel(s)                               : 2 channels
Channel layout                           : L R
Sampling rate                            : 44.1 kHz
Frame rate                               : 43.066 FPS (1024 SPF)
Compression mode                         : Lossy
Stream size                              : 10.7 MiB (9%)
Default                                  : Yes
Alternate group                          : 1

Text #1
ID                                       : 3
Format                                   : Timed Text
Muxing mode                              : sbtl
Codec ID                                 : tx3g
Duration                                 : 7 min 30 s
Bit rate mode                            : Variable
Bit rate                                 : 91 b/s
Stream size                              : 5.03 KiB (0%)
Title                                    : English
Default                                  : Yes
Forced                                   : No
Alternate group                          : 3

Text #2
ID                                       : 4
Format                                   : Timed Text
Muxing mode                              : sbtl
Codec ID                                 : tx3g
Duration                                 : 7 min 21 s
Bit rate mode                            : Variable
Bit rate                                 : 248 b/s
Stream size                              : 13.4 KiB (0%)
Title                                    : Thai
Default                                  : No
Forced                                   : No
Alternate group                          : 3

Text #3
ID                                       : 5
Format                                   : Timed Text
Muxing mode                              : sbtl
Codec ID                                 : tx3g
Duration                                 : 7 min 21 s
Bit rate mode                            : Variable
Bit rate                                 : 120 b/s
Stream size                              : 6.46 KiB (0%)
Title                                    : Vietnamese
Default                                  : No
Forced                                   : No
Alternate group                          : 3

Text #4
ID                                       : 6
Format                                   : Timed Text
Muxing mode                              : sbtl
Codec ID                                 : tx3g
Duration                                 : 7 min 31 s
Bit rate mode                            : Variable
Bit rate                                 : 109 b/s
Stream size                              : 5.99 KiB (0%)
Title                                    : Bahasa Malaysia
Default                                  : No
Forced                                   : No
Alternate group                          : 3

Text #5
ID                                       : 7
Format                                   : Timed Text
Muxing mode                              : sbtl
Codec ID                                 : tx3g
Duration                                 : 7 min 21 s
Bit rate mode                            : Variable
Bit rate                                 : 94 b/s
Stream size                              : 5.08 KiB (0%)
Title                                    : Bahasa Indonesia
Default                                  : No
Forced                                   : No
Alternate group                          : 3

Other Files in this Torrent
Battlefield of the Crazy Empresses Episódio 09.mp4
beta
Anime DDL+NZB mirror
Current Time: 20/05/2022 05:09



About/FAQs

Discord