[Asakura] Isekai Quartet - 12 [1080p] [CB643E1E].mkv


File Size421.7 MB (442,202,982 bytes)
DownloadClickNUpload | Jheberg | MultiUp
  • BdUpload
  • DownAce
  • Fichier
  • FileCloud
  • Filerio
  • FilesCdn
  • IndiShare
  • Kbagi
  • Turbobit
  • UpToBox
  • Uppit
| OpenLoad | SolidFiles | ZippyShare
Sendspace: Part1, Part2
HashesCRC32: CB643E1E, MD5: FACE04C2418D02015E2CAC91F1244D60, SHA1: 09A56C0752D044EA08B4B568BA3E90056995A548, SHA256: FF6CEB56FAC33789D7AA6CB71577E066E6B8788C828DCE67C900AB95FF81D12F, ED2K: A8B916B007605C3D484EEF51E348D39F
Screenshots
screenshotscreenshotscreenshotscreenshotscreenshot
SubtitlesAll Attachments | Asakura [eng, ASS]
Additional Info
General
Unique ID                                : 333642311320825877503869578323665152531 (0xFB012BFBA840B5991CE49B1FF70CEA13)
Complete name                            : [Asakura] Isekai Quartet - 12 [1080p] [CB643E1E].mkv
Format                                   : Matroska
Format version                           : Version 4
File size                                : 422 MiB
Duration                                 : 11 min 51 s
Overall bit rate                         : 4 972 kb/s
Encoded date                             : UTC 2019-06-25 20:12:57
Writing application                      : mkvmerge v35.0.0 ('All The Love In The World') 64-bit
Writing library                          : libebml v1.3.9 + libmatroska v1.5.2
Attachments                              : KGRedHands.ttf / Avantgarde Bk Bt Eclipse_Book.ttf / Gandhisans-Bold.otf / KGBlankSpaceSolid.ttf

Video
ID                                       : 1
Format                                   : AVC
Format/Info                              : Advanced Video Codec
Format profile                           : High@L4
Format settings                          : CABAC / 4 Ref Frames
Format settings, CABAC                   : Yes
Format settings, ReFrames                : 4 frames
Codec ID                                 : V_MPEG4/ISO/AVC
Duration                                 : 11 min 50 s
Bit rate                                 : 4 849 kb/s
Width                                    : 1 920 pixels
Height                                   : 1 080 pixels
Display aspect ratio                     : 16:9
Frame rate mode                          : Constant
Frame rate                               : 23.976 (24000/1001) FPS
Color space                              : YUV
Chroma subsampling                       : 4:2:0
Bit depth                                : 8 bits
Scan type                                : Progressive
Bits/(Pixel*Frame)                       : 0.098
Stream size                              : 410 MiB (97%)
Writing library                          : x264 core 142
Encoding settings                        : cabac=1 / ref=4 / deblock=1:1:1 / analyse=0x3:0x113 / me=umh / subme=8 / psy=1 / psy_rd=0.40:0.00 / mixed_ref=1 / me_range=16 / chroma_me=1 / trellis=1 / 8x8dct=1 / cqm=0 / deadzone=21,11 / fast_pskip=1 / chroma_qp_offset=-2 / threads=12 / lookahead_threads=2 / sliced_threads=0 / nr=0 / decimate=1 / interlaced=0 / bluray_compat=0 / constrained_intra=0 / bframes=3 / b_pyramid=2 / b_adapt=2 / b_bias=0 / direct=3 / weightb=1 / open_gop=0 / weightp=2 / keyint=96 / keyint_min=48 / scenecut=40 / intra_refresh=0 / rc_lookahead=48 / rc=crf / mbtree=1 / crf=15.0 / qcomp=0.60 / qpmin=0 / qpmax=69 / qpstep=4 / vbv_maxrate=8000 / vbv_bufsize=12000 / crf_max=0.0 / nal_hrd=none / filler=0 / ip_ratio=1.40 / aq=1:0.60
Language                                 : Japanese
Default                                  : Yes
Forced                                   : No

Audio
ID                                       : 2
Format                                   : AAC LC
Format/Info                              : Advanced Audio Codec Low Complexity
Codec ID                                 : A_AAC-2
Duration                                 : 11 min 50 s
Bit rate                                 : 128 kb/s
Channel(s)                               : 2 channels
Channel layout                           : L R
Sampling rate                            : 44.1 kHz
Frame rate                               : 43.066 FPS (1024 SPF)
Compression mode                         : Lossy
Stream size                              : 10.8 MiB (3%)
Language                                 : Japanese
Default                                  : Yes
Forced                                   : No

Text
ID                                       : 3
Format                                   : ASS
Codec ID                                 : S_TEXT/ASS
Codec ID/Info                            : Advanced Sub Station Alpha
Duration                                 : 11 min 46 s
Bit rate                                 : 136 b/s
Count of elements                        : 224
Compression mode                         : Lossless
Stream size                              : 11.8 KiB (0%)
Title                                    : Asakura
Language                                 : English
Default                                  : Yes
Forced                                   : No

Menu
00:00:00.000                             : en:Intro
00:00:36.077                             : en:Episode
00:10:29.118                             : en:"ED"

Other Files in this Torrent
[Asakura] Isekai Quartet - 12 [1080p] [CB643E1E].mkv
beta
Anime DDL+NZB mirror
Current Time: 22/04/2024 20:03



About/FAQs

Discord