[Asakura] Isekai Quartet - 06 [1080p][7963348E].mkv


File Size321.3 MB (336,956,634 bytes)
DownloadClickNUpload | Jheberg | MultiUp
  • BdUpload
  • DownAce
  • Fichier
  • FileCloud
  • Filerio
  • FilesCdn
  • IndiShare
  • Kbagi
  • Turbobit
  • UpToBox
  • Uppit
| OpenLoad | SolidFiles | ZippyShare
Sendspace: Part1, Part2
HashesCRC32: 7963348E, MD5: 39FC567D5257E0A32DACFE0DCC6271A2, SHA1: C7080818DCEDE6890147E8FF0A92BB012C18DD7E, SHA256: 1399B3D2DBCB3B34D9D2BD663C79BFFB454250FBBB76FD07EAF507A5F8B66969, ED2K: 89FC18FCF43CDDA956E908FB3EFEBB0B
Screenshots
screenshotscreenshotscreenshotscreenshotscreenshot
SubtitlesAll Attachments | Asakura [eng, ASS]
Additional Info
General
Unique ID                                : 281260651027918539406019424981111401140 (0xD398D4BC5DF102A8729317669C61EAB4)
Complete name                            : [Asakura] Isekai Quartet - 06 [1080p][7963348E].mkv
Format                                   : Matroska
Format version                           : Version 4
File size                                : 321 MiB
Duration                                 : 11 min 50 s
Overall bit rate                         : 3 796 kb/s
Encoded date                             : UTC 2019-05-15 17:27:08
Writing application                      : mkvmerge v33.1.0 ('Primrose') 64-bit
Writing library                          : libebml v1.3.7 + libmatroska v1.5.0
Attachments                              : Moon Flower Bold.ttf / PIXEARG.TTF / andyb.ttf / Arvo-Bold.ttf / avgardneclipse.ttf / Bubblegum.ttf / Chalk.ttf / GandhiSans-Bold.otf

Video
ID                                       : 1
Format                                   : AVC
Format/Info                              : Advanced Video Codec
Format profile                           : High@L4
Format settings                          : CABAC / 4 Ref Frames
Format settings, CABAC                   : Yes
Format settings, ReFrames                : 4 frames
Codec ID                                 : V_MPEG4/ISO/AVC
Duration                                 : 11 min 50 s
Bit rate                                 : 3 645 kb/s
Width                                    : 1 920 pixels
Height                                   : 1 080 pixels
Display aspect ratio                     : 16:9
Frame rate mode                          : Constant
Frame rate                               : 23.976 (24000/1001) FPS
Color space                              : YUV
Chroma subsampling                       : 4:2:0
Bit depth                                : 8 bits
Scan type                                : Progressive
Bits/(Pixel*Frame)                       : 0.073
Stream size                              : 308 MiB (96%)
Writing library                          : x264 core 142
Encoding settings                        : cabac=1 / ref=4 / deblock=1:1:1 / analyse=0x3:0x113 / me=umh / subme=8 / psy=1 / psy_rd=0.40:0.00 / mixed_ref=1 / me_range=16 / chroma_me=1 / trellis=1 / 8x8dct=1 / cqm=0 / deadzone=21,11 / fast_pskip=1 / chroma_qp_offset=-2 / threads=12 / lookahead_threads=2 / sliced_threads=0 / nr=0 / decimate=1 / interlaced=0 / bluray_compat=0 / constrained_intra=0 / bframes=3 / b_pyramid=2 / b_adapt=2 / b_bias=0 / direct=3 / weightb=1 / open_gop=0 / weightp=2 / keyint=9999999 / keyint_min=5000000 / scenecut=0 / intra_refresh=0 / rc_lookahead=50 / rc=crf / mbtree=1 / crf=15.0 / qcomp=0.60 / qpmin=0 / qpmax=69 / qpstep=4 / vbv_maxrate=8000 / vbv_bufsize=12000 / crf_max=0.0 / nal_hrd=none / filler=0 / ip_ratio=1.40 / aq=1:0.60
Language                                 : Japanese
Default                                  : Yes
Forced                                   : No

Audio
ID                                       : 2
Format                                   : AAC LC
Format/Info                              : Advanced Audio Codec Low Complexity
Codec ID                                 : A_AAC-2
Duration                                 : 11 min 50 s
Bit rate                                 : 128 kb/s
Channel(s)                               : 2 channels
Channel layout                           : L R
Sampling rate                            : 44.1 kHz
Frame rate                               : 43.066 FPS (1024 SPF)
Compression mode                         : Lossy
Stream size                              : 10.8 MiB (3%)
Language                                 : Japanese
Default                                  : Yes
Forced                                   : No

Text
ID                                       : 3
Format                                   : ASS
Codec ID                                 : S_TEXT/ASS
Codec ID/Info                            : Advanced Sub Station Alpha
Duration                                 : 11 min 49 s
Bit rate                                 : 14.1 kb/s
Count of elements                        : 3065
Compression mode                         : Lossless
Stream size                              : 1.19 MiB (0%)
Title                                    : Asakura
Language                                 : English
Default                                  : Yes
Forced                                   : No

Menu
00:00:00.000                             : en:Intro
00:00:13.389                             : en:OP
00:01:43.103                             : en:Episode
00:10:26.377                             : en:ED
00:11:43.621                             : en:Outtro

Other Files in this Torrent
[Asakura] Isekai Quartet - 06 [1080p][7963348E].mkv
beta
Anime DDL+NZB mirror
Current Time: 22/04/2024 18:56



About/FAQs

Discord