[Asakura] Isekai Quartet - 10 [1080p] [7F36E4A2].mkv


File Size287.5 MB (301,416,089 bytes)
DownloadClickNUpload | Jheberg | MultiUp
  • BdUpload
  • DownAce
  • Fichier
  • FileCloud
  • Filerio
  • FilesCdn
  • IndiShare
  • Kbagi
  • Turbobit
  • UpToBox
  • Uppit
| OpenLoad | Sendspace | SolidFiles | ZippyShare
HashesCRC32: 7F36E4A2, MD5: 1A0EE66A62B71E4415CF7FDF9B044047, SHA1: 22E0396F9872F7DDA7A961A508C227752A3FB568, SHA256: 515508753C48B495B4DC823D7DC9EF254343D76533526CB236E23A1F22FF9B8A, ED2K: 55882C205E2570791BD994B36904AD70
Screenshots
screenshotscreenshotscreenshotscreenshotscreenshot
SubtitlesAll Attachments | Asakura [eng, ASS]
Additional Info
General
Unique ID                                : 285719178421833567883049639576580748341 (0xD6F3831BA96019064DCE5201EC317435)
Complete name                            : [Asakura] Isekai Quartet - 10 [1080p] [7F36E4A2].mkv
Format                                   : Matroska
Format version                           : Version 4
File size                                : 287 MiB
Duration                                 : 11 min 50 s
Overall bit rate                         : 3 396 kb/s
Encoded date                             : UTC 2019-06-11 20:20:42
Writing application                      : mkvmerge v34.0.0 ('Sight and Seen') 64-bit
Writing library                          : libebml v1.3.7 + libmatroska v1.5.0
Attachments                              : PIXEARG.TTF / A Little Sunshine.ttf / Arvo-Bold.ttf / Avantgarde Bk Bt Eclipse_Book.ttf / Bubblegum.ttf / Erasdust.ttf / FOTRodinPro-UB-wixoss.ttf / Gandhisans-Bold.otf / KGBlankSpaceSolid.ttf

Video
ID                                       : 1
Format                                   : AVC
Format/Info                              : Advanced Video Codec
Format profile                           : High@L4
Format settings                          : CABAC / 4 Ref Frames
Format settings, CABAC                   : Yes
Format settings, ReFrames                : 4 frames
Codec ID                                 : V_MPEG4/ISO/AVC
Duration                                 : 11 min 50 s
Bit rate                                 : 3 257 kb/s
Width                                    : 1 920 pixels
Height                                   : 1 080 pixels
Display aspect ratio                     : 16:9
Frame rate mode                          : Constant
Frame rate                               : 23.976 (24000/1001) FPS
Color space                              : YUV
Chroma subsampling                       : 4:2:0
Bit depth                                : 8 bits
Scan type                                : Progressive
Bits/(Pixel*Frame)                       : 0.066
Stream size                              : 276 MiB (96%)
Writing library                          : x264 core 142
Encoding settings                        : cabac=1 / ref=4 / deblock=1:1:1 / analyse=0x3:0x113 / me=umh / subme=8 / psy=1 / psy_rd=0.40:0.00 / mixed_ref=1 / me_range=16 / chroma_me=1 / trellis=1 / 8x8dct=1 / cqm=0 / deadzone=21,11 / fast_pskip=1 / chroma_qp_offset=-2 / threads=12 / lookahead_threads=2 / sliced_threads=0 / nr=0 / decimate=1 / interlaced=0 / bluray_compat=0 / constrained_intra=0 / bframes=3 / b_pyramid=2 / b_adapt=2 / b_bias=0 / direct=3 / weightb=1 / open_gop=0 / weightp=2 / keyint=9999999 / keyint_min=5000000 / scenecut=0 / intra_refresh=0 / rc_lookahead=50 / rc=crf / mbtree=1 / crf=15.0 / qcomp=0.60 / qpmin=0 / qpmax=69 / qpstep=4 / vbv_maxrate=8000 / vbv_bufsize=12000 / crf_max=0.0 / nal_hrd=none / filler=0 / ip_ratio=1.40 / aq=1:0.60
Language                                 : Japanese
Default                                  : Yes
Forced                                   : No

Audio
ID                                       : 2
Format                                   : AAC LC
Format/Info                              : Advanced Audio Codec Low Complexity
Codec ID                                 : A_AAC-2
Duration                                 : 11 min 50 s
Bit rate                                 : 128 kb/s
Channel(s)                               : 2 channels
Channel layout                           : L R
Sampling rate                            : 44.1 kHz
Frame rate                               : 43.066 FPS (1024 SPF)
Compression mode                         : Lossy
Stream size                              : 10.8 MiB (4%)
Language                                 : Japanese
Default                                  : Yes
Forced                                   : No

Text
ID                                       : 3
Format                                   : ASS
Codec ID                                 : S_TEXT/ASS
Codec ID/Info                            : Advanced Sub Station Alpha
Duration                                 : 11 min 47 s
Bit rate                                 : 2 018 b/s
Count of elements                        : 1229
Compression mode                         : Lossless
Stream size                              : 174 KiB (0%)
Title                                    : Asakura
Language                                 : English
Default                                  : Yes
Forced                                   : No

Menu
00:00:00.000                             : en:Intro
00:00:55.640                             : en:OP
00:02:25.104                             : en:Episode
00:10:30.115                             : en:ED

Other Files in this Torrent
[Asakura] Isekai Quartet - 10 [1080p] [7F36E4A2].mkv
beta
Anime DDL+NZB mirror
Current Time: 22/04/2024 18:27



About/FAQs

Discord