[Asakura] Isekai Quartet - 02 [1080p] [0AAB8044].mkv


File Size629.3 MB (659,833,774 bytes)
DownloadClickNUpload | Jheberg | OpenLoad
MultiUp: Part1
  • BdUpload
  • DownAce
  • Fichier
  • FileCloud
  • Filerio
  • FilesCdn
  • IndiShare
  • Kbagi
  • Turbobit
  • UpToBox
  • Uppit
, Part2
  • BdUpload
  • DownAce
  • Fichier
  • FileCloud
  • Filerio
  • FilesCdn
  • IndiShare
  • Kbagi
  • Turbobit
  • UpToBox
  • Uppit

Sendspace: Part1, Part2, Part3
SolidFiles: Part1, Part2
ZippyShare: Part1, Part2
HashesCRC32: 0AAB8044, MD5: F7E502ACF665A240883D5F73671625F4, SHA1: 85521F3E951BDA2FACB08070A9DA3EABF87F138E, SHA256: C12DEA1EB19D8C8FD9EB65864C544EA21CBE768DB8C6534C82A7CB376166EC17, ED2K: 6636D712D820C9F2F2F131E5B171E8DA
Screenshots
screenshotscreenshotscreenshotscreenshotscreenshot
SubtitlesAll Attachments | Asakura [eng, ASS]
Additional Info
General
Unique ID                                : 98930163841157331020398391181183113143 (0x4A6D41A99F53E90C667563F7B5C157B7)
Complete name                            : [Asakura] Isekai Quartet - 02 [1080p] [0AAB8044].mkv
Format                                   : Matroska
Format version                           : Version 4
File size                                : 629 MiB
Duration                                 : 12 min 0 s
Overall bit rate                         : 7 330 kb/s
Encoded date                             : UTC 2019-04-16 20:50:58
Writing application                      : mkvmerge v33.1.0 ('Primrose') 64-bit
Writing library                          : libebml v1.3.7 + libmatroska v1.5.0
Attachments                              : Arvo-Bold.ttf / avgardneclipse.ttf / Cabin-Bold.otf / erasdust.ttf / GandhiSans-Bold.otf

Video
ID                                       : 1
Format                                   : AVC
Format/Info                              : Advanced Video Codec
Format profile                           : High@L4
Format settings                          : CABAC / 4 Ref Frames
Format settings, CABAC                   : Yes
Format settings, ReFrames                : 4 frames
Codec ID                                 : V_MPEG4/ISO/AVC
Duration                                 : 12 min 0 s
Bit rate                                 : 7 070 kb/s
Nominal bit rate                         : 8 000 kb/s
Width                                    : 1 920 pixels
Height                                   : 1 080 pixels
Display aspect ratio                     : 16:9
Frame rate mode                          : Constant
Frame rate                               : 23.976 (24000/1001) FPS
Color space                              : YUV
Chroma subsampling                       : 4:2:0
Bit depth                                : 8 bits
Scan type                                : Progressive
Bits/(Pixel*Frame)                       : 0.142
Stream size                              : 607 MiB (96%)
Writing library                          : x264 core 157 r2948 dada181
Encoding settings                        : cabac=1 / ref=1 / deblock=1:0:0 / analyse=0x3:0x113 / me=hex / subme=7 / psy=1 / psy_rd=1.00:0.00 / mixed_ref=0 / me_range=16 / chroma_me=1 / trellis=1 / 8x8dct=1 / cqm=0 / deadzone=21,11 / fast_pskip=1 / chroma_qp_offset=-2 / threads=24 / lookahead_threads=4 / sliced_threads=0 / nr=0 / decimate=1 / interlaced=0 / bluray_compat=0 / constrained_intra=0 / bframes=2 / b_pyramid=2 / b_adapt=1 / b_bias=0 / direct=1 / weightb=1 / open_gop=0 / weightp=2 / keyint=48 / keyint_min=4 / scenecut=40 / intra_refresh=0 / rc_lookahead=40 / rc=cbr / mbtree=1 / bitrate=8000 / ratetol=1.0 / qcomp=0.60 / qpmin=0 / qpmax=69 / qpstep=4 / vbv_maxrate=8000 / vbv_bufsize=24000 / nal_hrd=none / filler=0 / ip_ratio=1.40 / aq=1:1.00
Language                                 : Japanese
Default                                  : Yes
Forced                                   : No

Audio
ID                                       : 2
Format                                   : AAC LC
Format/Info                              : Advanced Audio Codec Low Complexity
Codec ID                                 : A_AAC-2
Duration                                 : 12 min 0 s
Bit rate                                 : 253 kb/s
Channel(s)                               : 2 channels
Channel layout                           : L R
Sampling rate                            : 48.0 kHz
Frame rate                               : 46.875 FPS (1024 SPF)
Compression mode                         : Lossy
Stream size                              : 21.8 MiB (3%)
Language                                 : Japanese
Default                                  : Yes
Forced                                   : No

Text
ID                                       : 3
Format                                   : ASS
Codec ID                                 : S_TEXT/ASS
Codec ID/Info                            : Advanced Sub Station Alpha
Duration                                 : 11 min 48 s
Bit rate                                 : 255 b/s
Count of elements                        : 260
Compression mode                         : Lossless
Stream size                              : 22.1 KiB (0%)
Title                                    : Asakura
Language                                 : English
Default                                  : Yes
Forced                                   : No

Menu
00:00:00.000                             : en:Intro
00:01:24.084                             : en:OP
00:02:53.091                             : en:Episode
00:10:25.792                             : en:ED
00:11:44.205                             : en:Outtro

Other Files in this Torrent
[Asakura] Isekai Quartet - 02 [1080p] [0AAB8044].mkv
beta
Anime DDL+NZB mirror
Current Time: 22/04/2024 19:39



About/FAQs

Discord