File Size303.3 MB (318,050,926 bytes)
DownloadGo4Up | Jheberg | MultiUp | OpenLoad | SolidFiles | UsersCloud
Sendspace: Part1, Part2
HashesCRC32: CE3F1792, MD5: C8F4640AC81594CFB081E673A0B8F2B0, SHA1: 0E172A1F3F7F26C21D707DFCAA8C585D9DE5EA80, SHA256: B1AE439A972D1B5D51246CFC7309048F35F396BA0566407B9E2E4E77EDC91A40, ED2K: 692334275A7E04951B22D013C2E59FA3
Screenshots
screenshotscreenshotscreenshotscreenshotscreenshot
SubtitlesAll Attachments | English (Signs / Songs) [eng, ASS], English (Full) [eng, ASS]
Additional Info
General
Unique ID                                : 236389680164855448270098788745014578013 (0xB1D6FF1146AB6CFFB4AE476C90DE8B5D)
Complete name                            : [AnimeRG] Tokyo Ghoul - 08 [1080p] [x265] [pseudo].mkv
Format                                   : Matroska
Format version                           : Version 4 / Version 2
File size                                : 303 MiB
Duration                                 : 24 min 5 s
Overall bit rate                         : 1 760 kb/s
Movie name                               : Circular
Encoded date                             : UTC 2017-03-13 23:54:49
Writing application                      : mkvmerge v9.2.0 ('Photograph') 64bit
Writing library                          : libebml v1.3.3 + libmatroska v1.4.4
Attachments                              : ALEX_.ttf / Angie-Bold.ttf / CLEARGL.ttf / Disney_Simple.ttf / GosmickSans.ttf / huxtable.ttf

Video
ID                                       : 1
Format                                   : HEVC
Format/Info                              : High Efficiency Video Coding
Format profile                           : Main@L5@Main
Codec ID                                 : V_MPEGH/ISO/HEVC
Duration                                 : 24 min 4 s
Bit rate                                 : 1 365 kb/s
Width                                    : 1 920 pixels
Height                                   : 1 080 pixels
Display aspect ratio                     : 16:9
Frame rate mode                          : Constant
Frame rate                               : 23.976 (24000/1001) FPS
Color space                              : YUV
Chroma subsampling                       : 4:2:0
Bit depth                                : 8 bits
Bits/(Pixel*Frame)                       : 0.027
Stream size                              : 235 MiB (77%)
Default                                  : Yes
Forced                                   : No

Audio #1
ID                                       : 4
Format                                   : AAC
Format/Info                              : Advanced Audio Codec
Format profile                           : LC
Codec ID                                 : A_AAC
Duration                                 : 24 min 5 s
Bit rate                                 : 276 kb/s
Channel(s)                               : 6 channels
Channel positions                        : Front: L C R, Side: L R, LFE
Sampling rate                            : 48.0 kHz
Frame rate                               : 46.875 FPS (1024 spf)
Compression mode                         : Lossy
Delay relative to video                  : 20 ms
Stream size                              : 47.6 MiB (16%)
Title                                    : English 5.1 Surround
Language                                 : English
Default                                  : Yes
Forced                                   : No

Audio #2
ID                                       : 5
Format                                   : AAC
Format/Info                              : Advanced Audio Codec
Format profile                           : LC
Codec ID                                 : A_AAC
Duration                                 : 24 min 4 s
Bit rate                                 : 103 kb/s
Channel(s)                               : 2 channels
Channel positions                        : Front: L R
Sampling rate                            : 48.0 kHz
Frame rate                               : 46.875 FPS (1024 spf)
Compression mode                         : Lossy
Delay relative to video                  : 20 ms
Stream size                              : 17.8 MiB (6%)
Title                                    : Japanese Stereo
Language                                 : Japanese
Default                                  : No
Forced                                   : No

Text #1
ID                                       : 2
Format                                   : ASS
Codec ID                                 : S_TEXT/ASS
Codec ID/Info                            : Advanced Sub Station Alpha
Duration                                 : 23 min 30 s
Bit rate                                 : 5 604 b/s
Count of elements                        : 1068
Compression mode                         : Lossless
Stream size                              : 965 KiB (0%)
Title                                    : English (Signs / Songs)
Language                                 : English
Default                                  : Yes
Forced                                   : No

Text #2
ID                                       : 3
Format                                   : ASS
Codec ID                                 : S_TEXT/ASS
Codec ID/Info                            : Advanced Sub Station Alpha
Duration                                 : 24 min 4 s
Bit rate                                 : 5 546 b/s
Count of elements                        : 1338
Compression mode                         : Lossless
Stream size                              : 978 KiB (0%)
Title                                    : English (Full)
Language                                 : English
Default                                  : No
Forced                                   : No

Menu
00:00:00.000                             : en:Prologue
00:01:13.970                             : en:Opening
00:02:44.010                             : en:Part 1
00:11:16.980                             : en:Part 2
00:22:04.460                             : en:Ending
00:23:34.930                             : en:Preview

Other Files in this Torrent
[AnimeRG] Tokyo Ghoul - 08 [1080p] [x265] [pseudo].mkv
beta
Anime DDL+NZB mirror
Current Time: 06/07/2020 16:52



About/FAQs