File Size297.5 MB (311,930,334 bytes)
DownloadGo4Up | Jheberg | MultiUp | OpenLoad | Sendspace | SolidFiles | UsersCloud
HashesCRC32: 6EF5A7B7, MD5: 352E4ED1731A5AB873412B7A41328095, SHA1: 38205C7DEAC84FD5E8B504B57BC882570C0BB40D, SHA256: 995F8D107CFA39E63AAEC052BD9892DE3134B116820274ECA3349DDFDEA43FCE, ED2K: 7F88674F1199744576E4E32FE6ECB551
Screenshots
screenshotscreenshotscreenshotscreenshotscreenshot
SubtitlesAll Attachments | English (Signs / Songs) [eng, ASS], English (Full) [eng, ASS]
Additional Info
General
Unique ID                                : 185492228769143315026679259041254374245 (0x8B8C80F7F8FE4F5DA0A315528E787B65)
Complete name                            : [AnimeRG] Tokyo Ghoul - 04 [1080p] [x265] [pseudo].mkv
Format                                   : Matroska
Format version                           : Version 4 / Version 2
File size                                : 297 MiB
Duration                                 : 24 min 1 s
Overall bit rate                         : 1 732 kb/s
Movie name                               : Supper
Encoded date                             : UTC 2017-03-13 23:53:55
Writing application                      : mkvmerge v9.2.0 ('Photograph') 64bit
Writing library                          : libebml v1.3.3 + libmatroska v1.4.4
Attachments                              : ALEX_.ttf / Angie-Bold.ttf / CLEARGL.ttf / Disney_Simple.ttf / huxtable.ttf

Video
ID                                       : 1
Format                                   : HEVC
Format/Info                              : High Efficiency Video Coding
Format profile                           : Main@L5@Main
Codec ID                                 : V_MPEGH/ISO/HEVC
Duration                                 : 24 min 0 s
Bit rate                                 : 1 280 kb/s
Width                                    : 1 920 pixels
Height                                   : 1 080 pixels
Display aspect ratio                     : 16:9
Frame rate mode                          : Constant
Frame rate                               : 23.976 (24000/1001) FPS
Color space                              : YUV
Chroma subsampling                       : 4:2:0
Bit depth                                : 8 bits
Bits/(Pixel*Frame)                       : 0.026
Stream size                              : 220 MiB (74%)
Default                                  : Yes
Forced                                   : No

Audio #1
ID                                       : 4
Format                                   : AAC
Format/Info                              : Advanced Audio Codec
Format profile                           : LC
Codec ID                                 : A_AAC
Duration                                 : 23 min 59 s
Bit rate                                 : 265 kb/s
Channel(s)                               : 6 channels
Channel positions                        : Front: L C R, Side: L R, LFE
Sampling rate                            : 48.0 kHz
Frame rate                               : 46.875 FPS (1024 spf)
Compression mode                         : Lossy
Delay relative to video                  : 20 ms
Stream size                              : 45.4 MiB (15%)
Title                                    : English 5.1 Surround
Language                                 : English
Default                                  : Yes
Forced                                   : No

Audio #2
ID                                       : 5
Format                                   : AAC
Format/Info                              : Advanced Audio Codec
Format profile                           : LC
Codec ID                                 : A_AAC
Duration                                 : 24 min 0 s
Bit rate                                 : 96.0 kb/s
Channel(s)                               : 2 channels
Channel positions                        : Front: L R
Sampling rate                            : 48.0 kHz
Frame rate                               : 46.875 FPS (1024 spf)
Compression mode                         : Lossy
Delay relative to video                  : 20 ms
Stream size                              : 16.8 MiB (6%)
Title                                    : Japanese Stereo
Language                                 : Japanese
Default                                  : No
Forced                                   : No

Audio #3
ID                                       : 6
Format                                   : AAC
Format/Info                              : Advanced Audio Codec
Format profile                           : LC
Codec ID                                 : A_AAC
Duration                                 : 24 min 0 s
Bit rate                                 : 75.0 kb/s
Channel(s)                               : 2 channels
Channel positions                        : Front: L R
Sampling rate                            : 48.0 kHz
Frame rate                               : 46.875 FPS (1024 spf)
Compression mode                         : Lossy
Delay relative to video                  : 20 ms
Stream size                              : 12.9 MiB (4%)
Title                                    : English Commentary
Language                                 : English
Default                                  : No
Forced                                   : No

Text #1
ID                                       : 2
Format                                   : ASS
Codec ID                                 : S_TEXT/ASS
Codec ID/Info                            : Advanced Sub Station Alpha
Duration                                 : 23 min 9 s
Bit rate                                 : 5 135 b/s
Count of elements                        : 517
Compression mode                         : Lossless
Stream size                              : 871 KiB (0%)
Title                                    : English (Signs / Songs)
Language                                 : English
Default                                  : Yes
Forced                                   : No

Text #2
ID                                       : 3
Format                                   : ASS
Codec ID                                 : S_TEXT/ASS
Codec ID/Info                            : Advanced Sub Station Alpha
Duration                                 : 23 min 59 s
Bit rate                                 : 5 066 b/s
Count of elements                        : 884
Compression mode                         : Lossless
Stream size                              : 891 KiB (0%)
Title                                    : English (Full)
Language                                 : English
Default                                  : No
Forced                                   : No

Menu
00:00:00.000                             : en:Prologue
00:01:13.970                             : en:Opening
00:02:44.010                             : en:Part 1
00:14:15.000                             : en:Part 2
00:22:00.000                             : en:Ending
00:23:29.970                             : en:Preview

Other Files in this Torrent
[AnimeRG] Tokyo Ghoul - 04 [1080p] [x265] [pseudo].mkv
beta
Anime DDL+NZB mirror
Current Time: 06/07/2020 17:30



About/FAQs