File Size287.2 MB (301,112,094 bytes)
DownloadGo4Up | Jheberg | MultiUp | OpenLoad | Sendspace | SolidFiles | UsersCloud
HashesCRC32: FE6BCBA7, MD5: D86DB2662FF9E836AFE3923F33329795, SHA1: 1570D2AA37BDE21F436AAAC3F585A91564BC31DF, SHA256: 0D3E504F0CEB86730ACA1A37D96226B471007186B7F1164440D14EF7E6064651, ED2K: D4489B0A7425DE87B4192BA13AA2F8CB
Screenshots
screenshotscreenshotscreenshotscreenshotscreenshot
SubtitlesAll Attachments | English (Signs / Songs) [eng, ASS], English (Full) [eng, ASS]
Additional Info
General
Unique ID                                : 183914243488433219816115239538969242362 (0x8A5C98499F04DF449E0814315AF76AFA)
Complete name                            : [AnimeRG] Tokyo Ghoul - 09 [1080p] [x265] [pseudo].mkv
Format                                   : Matroska
Format version                           : Version 4 / Version 2
File size                                : 287 MiB
Duration                                 : 24 min 6 s
Overall bit rate                         : 1 666 kb/s
Movie name                               : Birdcage
Encoded date                             : UTC 2017-03-13 23:55:04
Writing application                      : mkvmerge v9.2.0 ('Photograph') 64bit
Writing library                          : libebml v1.3.3 + libmatroska v1.4.4
Attachments                              : ALEX_.ttf / Angie-Bold.ttf / arial_0.ttf / ariblk.ttf / bluehighv2.ttf / CLEARGL.ttf / huxtable.ttf

Video
ID                                       : 1
Format                                   : HEVC
Format/Info                              : High Efficiency Video Coding
Format profile                           : Main@L5@Main
Codec ID                                 : V_MPEGH/ISO/HEVC
Duration                                 : 24 min 5 s
Bit rate                                 : 1 281 kb/s
Width                                    : 1 920 pixels
Height                                   : 1 080 pixels
Display aspect ratio                     : 16:9
Frame rate mode                          : Constant
Frame rate                               : 23.976 (24000/1001) FPS
Color space                              : YUV
Chroma subsampling                       : 4:2:0
Bit depth                                : 8 bits
Bits/(Pixel*Frame)                       : 0.026
Stream size                              : 221 MiB (77%)
Default                                  : Yes
Forced                                   : No

Audio #1
ID                                       : 4
Format                                   : AAC
Format/Info                              : Advanced Audio Codec
Format profile                           : LC
Codec ID                                 : A_AAC
Duration                                 : 24 min 5 s
Bit rate                                 : 265 kb/s
Channel(s)                               : 6 channels
Channel positions                        : Front: L C R, Side: L R, LFE
Sampling rate                            : 48.0 kHz
Frame rate                               : 46.875 FPS (1024 spf)
Compression mode                         : Lossy
Delay relative to video                  : 20 ms
Stream size                              : 45.4 MiB (16%)
Title                                    : English 5.1 Surround
Language                                 : English
Default                                  : Yes
Forced                                   : No

Audio #2
ID                                       : 5
Format                                   : AAC
Format/Info                              : Advanced Audio Codec
Format profile                           : LC
Codec ID                                 : A_AAC
Duration                                 : 24 min 5 s
Bit rate                                 : 96.0 kb/s
Channel(s)                               : 2 channels
Channel positions                        : Front: L R
Sampling rate                            : 48.0 kHz
Frame rate                               : 46.875 FPS (1024 spf)
Compression mode                         : Lossy
Delay relative to video                  : 20 ms
Stream size                              : 16.8 MiB (6%)
Title                                    : Japanese Stereo
Language                                 : Japanese
Default                                  : No
Forced                                   : No

Text #1
ID                                       : 2
Format                                   : ASS
Codec ID                                 : S_TEXT/ASS
Codec ID/Info                            : Advanced Sub Station Alpha
Duration                                 : 18 min 12 s
Bit rate                                 : 8 792 b/s
Count of elements                        : 2292
Compression mode                         : Lossless
Stream size                              : 1.14 MiB (0%)
Title                                    : English (Signs / Songs)
Language                                 : English
Default                                  : Yes
Forced                                   : No

Text #2
ID                                       : 3
Format                                   : ASS
Codec ID                                 : S_TEXT/ASS
Codec ID/Info                            : Advanced Sub Station Alpha
Duration                                 : 24 min 5 s
Bit rate                                 : 6 760 b/s
Count of elements                        : 2644
Compression mode                         : Lossless
Stream size                              : 1.16 MiB (0%)
Title                                    : English (Full)
Language                                 : English
Default                                  : No
Forced                                   : No

Menu
00:00:00.000                             : en:Prologue
00:06:15.930                             : en:Opening
00:07:45.980                             : en:Part 1
00:13:51.970                             : en:Part 2
00:22:05.010                             : en:Ending
00:23:34.970                             : en:Preview

Other Files in this Torrent
[AnimeRG] Tokyo Ghoul - 09 [1080p] [x265] [pseudo].mkv
beta
Anime DDL+NZB mirror
Current Time: 06/07/2020 17:05



About/FAQs