File Size312.6 MB (327,806,097 bytes)
DownloadGo4Up | Jheberg | MultiUp | OpenLoad | SolidFiles | UsersCloud
Sendspace: Part1, Part2
HashesCRC32: 3704F596, MD5: 3CEAC097C549BC12A04BD0A5F08B79CA, SHA1: 9250EA1EA73DA945E3CD402535D0B03556FD0725, SHA256: E77B60BAE1782DB27F67C82F679EF31D01AF63D4A64083791D6BBCA114738F05, ED2K: DCDD5584C22B6D0F1D3C2D81EF855400
Screenshots
screenshotscreenshotscreenshotscreenshotscreenshot
SubtitlesAll Attachments | English (Signs / Songs) [eng, ASS], English (Full) [eng, ASS]
Additional Info
General
Unique ID                                : 209099290949220119978235111695672275650 (0x9D4F0EFF0743A78A82191C704B7DF2C2)
Complete name                            : [AnimeRG] Tokyo Ghoul - 01 [1080p] [x265] [pseudo].mkv
Format                                   : Matroska
Format version                           : Version 4 / Version 2
File size                                : 313 MiB
Duration                                 : 26 min 2 s
Overall bit rate                         : 1 679 kb/s
Movie name                               : Tragedy
Encoded date                             : UTC 2017-03-13 23:52:59
Writing application                      : mkvmerge v9.2.0 ('Photograph') 64bit
Writing library                          : libebml v1.3.3 + libmatroska v1.4.4
Attachments                              : 14MINUTESSHARP.ttf / 637_0e2d4b16-6374-418b-a9bf-13527ea6414d.ttf.ttf / AaronBecker.ttf / akaDora.ttf / ALBR85W.ttf / ALEX_.ttf / Angie-Bold.ttf / arialbd_0.ttf / ariblk.ttf / CLEARGL.ttf / HANDSEAN.ttf / huxtable.ttf / Laser_0.ttf

Video
ID                                       : 1
Format                                   : HEVC
Format/Info                              : High Efficiency Video Coding
Format profile                           : Main@L5@Main
Codec ID                                 : V_MPEGH/ISO/HEVC
Duration                                 : 26 min 2 s
Bit rate                                 : 1 294 kb/s
Width                                    : 1 920 pixels
Height                                   : 1 080 pixels
Display aspect ratio                     : 16:9
Frame rate mode                          : Constant
Frame rate                               : 23.976 (24000/1001) FPS
Color space                              : YUV
Chroma subsampling                       : 4:2:0
Bit depth                                : 8 bits
Bits/(Pixel*Frame)                       : 0.026
Stream size                              : 241 MiB (77%)
Default                                  : Yes
Forced                                   : No

Audio #1
ID                                       : 4
Format                                   : AAC
Format/Info                              : Advanced Audio Codec
Format profile                           : LC
Codec ID                                 : A_AAC
Duration                                 : 26 min 2 s
Bit rate                                 : 265 kb/s
Channel(s)                               : 6 channels
Channel positions                        : Front: L C R, Side: L R, LFE
Sampling rate                            : 48.0 kHz
Frame rate                               : 46.875 FPS (1024 spf)
Compression mode                         : Lossy
Delay relative to video                  : 20 ms
Stream size                              : 50.0 MiB (16%)
Title                                    : English 5.1 Surround
Language                                 : English
Default                                  : Yes
Forced                                   : No

Audio #2
ID                                       : 5
Format                                   : AAC
Format/Info                              : Advanced Audio Codec
Format profile                           : LC
Codec ID                                 : A_AAC
Duration                                 : 26 min 2 s
Bit rate                                 : 99.5 kb/s
Channel(s)                               : 2 channels
Channel positions                        : Front: L R
Sampling rate                            : 48.0 kHz
Frame rate                               : 46.875 FPS (1024 spf)
Compression mode                         : Lossy
Delay relative to video                  : 20 ms
Stream size                              : 18.5 MiB (6%)
Title                                    : Japanese Stereo
Language                                 : Japanese
Default                                  : No
Forced                                   : No

Text #1
ID                                       : 2
Format                                   : ASS
Codec ID                                 : S_TEXT/ASS
Codec ID/Info                            : Advanced Sub Station Alpha
Duration                                 : 23 min 38 s
Bit rate                                 : 2 577 b/s
Count of elements                        : 2665
Compression mode                         : Lossless
Stream size                              : 446 KiB (0%)
Title                                    : English (Signs / Songs)
Language                                 : English
Default                                  : Yes
Forced                                   : No

Text #2
ID                                       : 3
Format                                   : ASS
Codec ID                                 : S_TEXT/ASS
Codec ID/Info                            : Advanced Sub Station Alpha
Duration                                 : 26 min 1 s
Bit rate                                 : 2 451 b/s
Count of elements                        : 3029
Compression mode                         : Lossless
Stream size                              : 467 KiB (0%)
Title                                    : English (Full)
Language                                 : English
Default                                  : No
Forced                                   : No

Menu
00:00:00.000                             : en:Prologue
00:02:06.980                             : en:Part 1
00:12:12.000                             : en:Part 2
00:23:59.910                             : en:Ending
00:25:29.960                             : en:Preview

Other Files in this Torrent
[AnimeRG] Tokyo Ghoul - 01 [1080p] [x265] [pseudo].mkv
beta
Anime DDL+NZB mirror
Current Time: 06/07/2020 17:54



About/FAQs