File Size312.5 MB (327,679,323 bytes)
DownloadGo4Up | Jheberg | MultiUp | OpenLoad | SolidFiles | UsersCloud
Sendspace: Part1, Part2
HashesCRC32: 75D08493, MD5: 7805EA7592E458EB3EE539719C0B6299, SHA1: 1D7B704770482768B00E328AD852937D40C72400, SHA256: 4A56B6F0FFE99E36C3281E2E83A0601DBB0885EE74492A8E4AB56AC452B597D7, ED2K: 4C98CC2CD5BF0D3FEFD00EFACBE26DEE
Screenshots
screenshotscreenshotscreenshotscreenshotscreenshot
SubtitlesAll Attachments | English (Signs / Songs) [eng, ASS], English (Full) [eng, ASS]
Additional Info
General
Unique ID                                : 192489856664117074669237689190607645108 (0x90D032A92EC4DBAE87301FB25CB269B4)
Complete name                            : [AnimeRG] Tokyo Ghoul - 12 [1080p] [x265] [pseudo].mkv
Format                                   : Matroska
Format version                           : Version 4 / Version 2
File size                                : 312 MiB
Duration                                 : 24 min 5 s
Overall bit rate                         : 1 813 kb/s
Movie name                               : Ghoul
Encoded date                             : UTC 2017-03-13 23:55:55
Writing application                      : mkvmerge v9.2.0 ('Photograph') 64bit
Writing library                          : libebml v1.3.3 + libmatroska v1.4.4
Attachments                              : Angie-Bold.ttf / huxtable.ttf

Video
ID                                       : 1
Format                                   : HEVC
Format/Info                              : High Efficiency Video Coding
Format profile                           : Main@L5@Main
Codec ID                                 : V_MPEGH/ISO/HEVC
Duration                                 : 24 min 5 s
Bit rate                                 : 1 366 kb/s
Width                                    : 1 920 pixels
Height                                   : 1 080 pixels
Display aspect ratio                     : 16:9
Frame rate mode                          : Constant
Frame rate                               : 23.976 (24000/1001) FPS
Color space                              : YUV
Chroma subsampling                       : 4:2:0
Bit depth                                : 8 bits
Bits/(Pixel*Frame)                       : 0.027
Stream size                              : 235 MiB (75%)
Default                                  : Yes
Forced                                   : No

Audio #1
ID                                       : 4
Format                                   : AAC
Format/Info                              : Advanced Audio Codec
Format profile                           : LC
Codec ID                                 : A_AAC
Duration                                 : 24 min 4 s
Bit rate                                 : 265 kb/s
Channel(s)                               : 6 channels
Channel positions                        : Front: L C R, Side: L R, LFE
Sampling rate                            : 48.0 kHz
Frame rate                               : 46.875 FPS (1024 spf)
Compression mode                         : Lossy
Delay relative to video                  : 20 ms
Stream size                              : 44.8 MiB (14%)
Title                                    : English 5.1 Surround
Language                                 : English
Default                                  : Yes
Forced                                   : No

Audio #2
ID                                       : 5
Format                                   : AAC
Format/Info                              : Advanced Audio Codec
Format profile                           : LC
Codec ID                                 : A_AAC
Duration                                 : 24 min 5 s
Bit rate                                 : 96.0 kb/s
Channel(s)                               : 2 channels
Channel positions                        : Front: L R
Sampling rate                            : 48.0 kHz
Frame rate                               : 46.875 FPS (1024 spf)
Compression mode                         : Lossy
Delay relative to video                  : 20 ms
Stream size                              : 16.3 MiB (5%)
Title                                    : Japanese Stereo
Language                                 : Japanese
Default                                  : No
Forced                                   : No

Audio #3
ID                                       : 6
Format                                   : AAC
Format/Info                              : Advanced Audio Codec
Format profile                           : LC
Codec ID                                 : A_AAC
Duration                                 : 24 min 5 s
Bit rate                                 : 76.8 kb/s
Channel(s)                               : 2 channels
Channel positions                        : Front: L R
Sampling rate                            : 48.0 kHz
Frame rate                               : 46.875 FPS (1024 spf)
Compression mode                         : Lossy
Delay relative to video                  : 20 ms
Stream size                              : 13.2 MiB (4%)
Title                                    : English Commentary
Language                                 : English
Default                                  : No
Forced                                   : No

Text #1
ID                                       : 2
Format                                   : ASS
Codec ID                                 : S_TEXT/ASS
Codec ID/Info                            : Advanced Sub Station Alpha
Duration                                 : 3 min 48 s
Bit rate                                 : 29.3 kb/s
Count of elements                        : 7465
Compression mode                         : Lossless
Stream size                              : 817 KiB (0%)
Title                                    : English (Signs / Songs)
Language                                 : English
Default                                  : Yes
Forced                                   : No

Text #2
ID                                       : 3
Format                                   : ASS
Codec ID                                 : S_TEXT/ASS
Codec ID/Info                            : Advanced Sub Station Alpha
Duration                                 : 23 min 57 s
Bit rate                                 : 4 752 b/s
Count of elements                        : 7775
Compression mode                         : Lossless
Stream size                              : 834 KiB (0%)
Title                                    : English (Full)
Language                                 : English
Default                                  : No
Forced                                   : No

Menu
00:00:00.000                             : en:Prologue
00:01:12.960                             : en:Part 1
00:18:37.920                             : en:Part 2

Other Files in this Torrent
[AnimeRG] Tokyo Ghoul - 12 [1080p] [x265] [pseudo].mkv
beta
Anime DDL+NZB mirror
Current Time: 06/07/2020 17:39



About/FAQs