11 - What Lies Behind That Emotion & A Public Bath! A Battle!!.mkv


File Size529.2 MB (554,908,386 bytes)
DownloadClickNUpload | Go4Up | Jheberg | MultiUp | OpenLoad | Upfile.mobi
Sendspace: Part1, Part2
SolidFiles: Part1, Part2
Encrypted DownloadDirect
Password:
HashesCRC32: D5548739, MD5: 873C5BE29D4707223045701C97D56856, SHA1: 95F48EB60583A3210C0ED768F3AA2D9ECA616A77, SHA256: B02DD50769A676F2356F5D6F728B17EF1C836E910D6451AE1026DE3D4EF831E6, ED2K: 751966BB195FD3A58829D528C58C845C
Screenshots
screenshotscreenshotscreenshotscreenshotscreenshot
Additional Info
General
Unique ID                                : 181313990956087975442806209892836247732 (0x8867CDF08EC2F8B3BF3EE00BC1F108B4)
Complete name                            : 11 - What Lies Behind That Emotion & A Public Bath! A Battle!!.mkv
Format                                   : Matroska
Format version                           : Version 4 / Version 2
File size                                : 529 MiB
Duration                                 : 22 min 56 s
Overall bit rate                         : 3 226 kb/s
Encoded date                             : UTC 2017-11-30 11:40:27
Writing application                      : mkvmerge v13.0.0 ('The Juggler') 32bit
Writing library                          : libebml v1.3.4 + libmatroska v1.4.5
Attachments                              : CALIBRIZ.TTF / coolvetica rg.ttf / Droid Sans.ttf / CALIBRIB.TTF

Video
ID                                       : 1
Format                                   : AVC
Format/Info                              : Advanced Video Codec
Format profile                           : High 10@L3.1
Format settings, CABAC                   : Yes
Format settings, ReFrames                : 4 frames
Codec ID                                 : V_MPEG4/ISO/AVC
Duration                                 : 22 min 56 s
Bit rate                                 : 2 894 kb/s
Width                                    : 1 280 pixels
Height                                   : 720 pixels
Display aspect ratio                     : 16:9
Frame rate mode                          : Constant
Frame rate                               : 23.976 (24000/1001) FPS
Color space                              : YUV
Chroma subsampling                       : 4:2:0
Bit depth                                : 10 bits
Scan type                                : Progressive
Bits/(Pixel*Frame)                       : 0.131
Stream size                              : 475 MiB (90%)
Writing library                          : x264 core 148 r2744 b97ae06
Encoding settings                        : cabac=1 / ref=3 / deblock=1:1:-1 / analyse=0x3:0x113 / me=hex / subme=7 / psy=1 / psy_rd=1.00:0.00 / mixed_ref=1 / me_range=16 / chroma_me=1 / trellis=1 / 8x8dct=1 / cqm=0 / deadzone=21,11 / fast_pskip=1 / chroma_qp_offset=-2 / threads=3 / lookahead_threads=1 / sliced_threads=0 / nr=0 / decimate=1 / interlaced=0 / bluray_compat=0 / constrained_intra=0 / bframes=3 / b_pyramid=2 / b_adapt=1 / b_bias=0 / direct=1 / weightb=1 / open_gop=0 / weightp=2 / keyint=240 / keyint_min=23 / scenecut=40 / intra_refresh=0 / rc_lookahead=40 / rc=crf / mbtree=1 / crf=15.0 / qcomp=0.60 / qpmin=0 / qpmax=81 / qpstep=4 / ip_ratio=1.40 / aq=1:1.00
Default                                  : Yes
Forced                                   : No

Audio
ID                                       : 2
Format                                   : AAC
Format/Info                              : Advanced Audio Codec
Format profile                           : LC
Codec ID                                 : A_AAC
Duration                                 : 22 min 56 s
Bit rate                                 : 318 kb/s
Channel(s)                               : 2 channels
Channel positions                        : Front: L R
Sampling rate                            : 48.0 kHz
Frame rate                               : 46.875 FPS (1024 spf)
Compression mode                         : Lossy
Delay relative to video                  : 9 ms
Stream size                              : 52.1 MiB (10%)
Language                                 : Japanese
Default                                  : Yes
Forced                                   : No

Menu
00:00:00.000                             : en:Opening
00:01:30.007                             : en:Part A
00:09:16.973                             : en:Part B
00:16:43.961                             : en:Ending
00:18:14.051                             : en:Part C
00:22:39.984                             : en:Preview

Other Files in this Torrent
11 - What Lies Behind That Emotion & A Public Bath! A Battle!!.mkv
beta
Anime DDL+NZB mirror
Current Time: 14/11/2019 18:37



About/FAQs