File Size413.0 MB (433,063,997 bytes)
DownloadClickNUpload | Go4Up | Jheberg | MultiUp | OpenLoad | SolidFiles | Upfile.mobi
Sendspace: Part1, Part2
Encrypted DownloadDirect
Password:
HashesCRC32: E4FA87CE, MD5: 434FEF1F397351625D331487C98A2CC7, SHA1: 90CA9B069B89E606DBC5C7A54E16DE30FD99C5B8, SHA256: 0B92105F4A9CEF2AE03D56FBB1EE212230EDABD5FC05D36B491D0BB35B004942, ED2K: B7A6DE6BA4A23AB22897601651D06247
Screenshots
screenshotscreenshotscreenshotscreenshotscreenshot
Additional Info
General
Unique ID                                : 178966463109391466387126099377761892944 (0x86A3AFE17B9B4359ABE086E204513A50)
Complete name                            : 01 - Gourai & Stylet And Baselard.mkv
Format                                   : Matroska
Format version                           : Version 4 / Version 2
File size                                : 413 MiB
Duration                                 : 22 min 56 s
Overall bit rate                         : 2 518 kb/s
Encoded date                             : UTC 2017-11-30 11:37:58
Writing application                      : mkvmerge v13.0.0 ('The Juggler') 32bit
Writing library                          : libebml v1.3.4 + libmatroska v1.4.5
Attachments                              : CALIBRIZ.TTF / coolvetica rg.ttf / Droid Sans.ttf / CALIBRIB.TTF

Video
ID                                       : 1
Format                                   : AVC
Format/Info                              : Advanced Video Codec
Format profile                           : High 10@L3.1
Format settings, CABAC                   : Yes
Format settings, ReFrames                : 4 frames
Codec ID                                 : V_MPEG4/ISO/AVC
Duration                                 : 22 min 56 s
Bit rate                                 : 2 188 kb/s
Width                                    : 1 280 pixels
Height                                   : 720 pixels
Display aspect ratio                     : 16:9
Frame rate mode                          : Constant
Frame rate                               : 23.976 (24000/1001) FPS
Color space                              : YUV
Chroma subsampling                       : 4:2:0
Bit depth                                : 10 bits
Scan type                                : Progressive
Bits/(Pixel*Frame)                       : 0.099
Stream size                              : 359 MiB (87%)
Writing library                          : x264 core 148 r2744 b97ae06
Encoding settings                        : cabac=1 / ref=3 / deblock=1:1:-1 / analyse=0x3:0x113 / me=hex / subme=7 / psy=1 / psy_rd=1.00:0.00 / mixed_ref=1 / me_range=16 / chroma_me=1 / trellis=1 / 8x8dct=1 / cqm=0 / deadzone=21,11 / fast_pskip=1 / chroma_qp_offset=-2 / threads=3 / lookahead_threads=1 / sliced_threads=0 / nr=0 / decimate=1 / interlaced=0 / bluray_compat=0 / constrained_intra=0 / bframes=3 / b_pyramid=2 / b_adapt=1 / b_bias=0 / direct=1 / weightb=1 / open_gop=0 / weightp=2 / keyint=240 / keyint_min=23 / scenecut=40 / intra_refresh=0 / rc_lookahead=40 / rc=crf / mbtree=1 / crf=16.0 / qcomp=0.60 / qpmin=0 / qpmax=81 / qpstep=4 / ip_ratio=1.40 / aq=1:1.00
Default                                  : Yes
Forced                                   : No

Audio
ID                                       : 2
Format                                   : AAC
Format/Info                              : Advanced Audio Codec
Format profile                           : LC
Codec ID                                 : A_AAC
Duration                                 : 22 min 56 s
Bit rate                                 : 315 kb/s
Channel(s)                               : 2 channels
Channel positions                        : Front: L R
Sampling rate                            : 48.0 kHz
Frame rate                               : 46.875 FPS (1024 spf)
Compression mode                         : Lossy
Delay relative to video                  : 9 ms
Stream size                              : 51.7 MiB (13%)
Language                                 : Japanese
Default                                  : Yes
Forced                                   : No

Menu
00:00:00.000                             : en:Opening
00:01:30.048                             : en:Part A
00:11:42.035                             : en:Part B
00:21:10.019                             : en:Ending
00:22:39.984                             : en:Preview

Other Files in this Torrent
01 - Gourai & Stylet And Baselard.mkv
beta
Anime DDL+NZB mirror
Current Time: 25/08/2019 19:53



About/FAQs