07 - VS Hresvelgr & First Tale Of The F.A. Girls.mkv


File Size385.0 MB (403,730,822 bytes)
DownloadClickNUpload | Go4Up | Jheberg | MultiUp | OpenLoad | SolidFiles | Upfile.mobi
Sendspace: Part1, Part2
Encrypted DownloadDirect
Password:
HashesCRC32: 61725702, MD5: F97BB54BF499FBF41EA9B83342EE00AD, SHA1: 5F96C6370E3A2509D918871AC65AA94A9A9B3E7D, SHA256: 6B85F56041D75B58B7B4A43EABE174EBEE778A6CD43C54B426E5C5882FA9EAAD, ED2K: 89D0562E5319AEC4CC93ADA9442F98F5
Screenshots
screenshotscreenshotscreenshotscreenshotscreenshot
Additional Info
General
Unique ID                                : 197898778071514770783290001790883411199 (0x94E1EB1362D344DA95CA980853F134FF)
Complete name                            : 07 - VS Hresvelgr & First Tale Of The F.A. Girls.mkv
Format                                   : Matroska
Format version                           : Version 4 / Version 2
File size                                : 385 MiB
Duration                                 : 22 min 56 s
Overall bit rate                         : 2 347 kb/s
Encoded date                             : UTC 2017-11-30 11:39:43
Writing application                      : mkvmerge v13.0.0 ('The Juggler') 32bit
Writing library                          : libebml v1.3.4 + libmatroska v1.4.5
Attachments                              : CALIBRIZ.TTF / coolvetica rg.ttf / Droid Sans.ttf / CALIBRIB.TTF

Video
ID                                       : 1
Format                                   : AVC
Format/Info                              : Advanced Video Codec
Format profile                           : High 10@L3.1
Format settings, CABAC                   : Yes
Format settings, ReFrames                : 4 frames
Codec ID                                 : V_MPEG4/ISO/AVC
Duration                                 : 22 min 56 s
Bit rate                                 : 2 024 kb/s
Width                                    : 1 280 pixels
Height                                   : 720 pixels
Display aspect ratio                     : 16:9
Frame rate mode                          : Constant
Frame rate                               : 23.976 (24000/1001) FPS
Color space                              : YUV
Chroma subsampling                       : 4:2:0
Bit depth                                : 10 bits
Scan type                                : Progressive
Bits/(Pixel*Frame)                       : 0.092
Stream size                              : 332 MiB (86%)
Writing library                          : x264 core 148 r2744 b97ae06
Encoding settings                        : cabac=1 / ref=3 / deblock=1:1:-1 / analyse=0x3:0x113 / me=hex / subme=7 / psy=1 / psy_rd=1.00:0.00 / mixed_ref=1 / me_range=16 / chroma_me=1 / trellis=1 / 8x8dct=1 / cqm=0 / deadzone=21,11 / fast_pskip=1 / chroma_qp_offset=-2 / threads=3 / lookahead_threads=1 / sliced_threads=0 / nr=0 / decimate=1 / interlaced=0 / bluray_compat=0 / constrained_intra=0 / bframes=3 / b_pyramid=2 / b_adapt=1 / b_bias=0 / direct=1 / weightb=1 / open_gop=0 / weightp=2 / keyint=240 / keyint_min=23 / scenecut=40 / intra_refresh=0 / rc_lookahead=40 / rc=crf / mbtree=1 / crf=16.0 / qcomp=0.60 / qpmin=0 / qpmax=81 / qpstep=4 / ip_ratio=1.40 / aq=1:1.00
Default                                  : Yes
Forced                                   : No

Audio
ID                                       : 2
Format                                   : AAC
Format/Info                              : Advanced Audio Codec
Format profile                           : LC
Codec ID                                 : A_AAC
Duration                                 : 22 min 56 s
Bit rate                                 : 309 kb/s
Channel(s)                               : 2 channels
Channel positions                        : Front: L R
Sampling rate                            : 48.0 kHz
Frame rate                               : 46.875 FPS (1024 spf)
Compression mode                         : Lossy
Delay relative to video                  : 9 ms
Stream size                              : 50.7 MiB (13%)
Language                                 : Japanese
Default                                  : Yes
Forced                                   : No

Menu
00:00:00.000                             : en:Opening
00:01:30.007                             : en:Part A
00:10:59.002                             : en:Part B
00:21:09.935                             : en:Ending
00:22:39.900                             : en:Preview

Other Files in this Torrent
07 - VS Hresvelgr & First Tale Of The F.A. Girls.mkv
beta
Anime DDL+NZB mirror
Current Time: 22/10/2019 20:13



About/FAQs