03 - Let's Go To School & Here Come The Materia Sisters.mkv


File Size479.5 MB (502,760,407 bytes)
DownloadClickNUpload | Go4Up
  • Ezfile
  • FileFactory
  • FilePup
  • MegaShares
  • Nitroflare
  • NowDownload
  • Oboom
  • OpenLoad
  • Rapidgator
  • Share-Online
  • ToutBox
  • Uplea
  • Uploadable
  • Uppit
  • UsersCloud
| Jheberg | MultiUp | OpenLoad | SolidFiles | Upfile.mobi
Sendspace: Part1, Part2
Encrypted DownloadDirect
Password:
HashesCRC32: 3FEA39A8, MD5: 717F59848B10F5949D0C497ABB42F6EC, SHA1: 7084C563B72A9379E272FE7DCE24B68BDDC93789, SHA256: A81D49D5F71413B5FA7F525F1D7AE477580BC1A9BD8C4AA1F65D1AC369386A86, ED2K: AD0B496F68BDA8A78C1FF3323D27E93E
Screenshots
screenshotscreenshotscreenshotscreenshotscreenshot
Additional Info
General
Unique ID                                : 213322272152131529882691394181385591087 (0xA07C600B6B73D60E8B8985BB276A992F)
Complete name                            : 03 - Let's Go To School & Here Come The Materia Sisters.mkv
Format                                   : Matroska
Format version                           : Version 4 / Version 2
File size                                : 479 MiB
Duration                                 : 22 min 56 s
Overall bit rate                         : 2 923 kb/s
Encoded date                             : UTC 2017-11-30 11:38:21
Writing application                      : mkvmerge v13.0.0 ('The Juggler') 32bit
Writing library                          : libebml v1.3.4 + libmatroska v1.4.5
Attachments                              : CALIBRIZ.TTF / coolvetica rg.ttf / Droid Sans.ttf / CALIBRIB.TTF

Video
ID                                       : 1
Format                                   : AVC
Format/Info                              : Advanced Video Codec
Format profile                           : High 10@L3.1
Format settings, CABAC                   : Yes
Format settings, ReFrames                : 4 frames
Codec ID                                 : V_MPEG4/ISO/AVC
Duration                                 : 22 min 56 s
Bit rate                                 : 2 591 kb/s
Width                                    : 1 280 pixels
Height                                   : 720 pixels
Display aspect ratio                     : 16:9
Frame rate mode                          : Constant
Frame rate                               : 23.976 (24000/1001) FPS
Color space                              : YUV
Chroma subsampling                       : 4:2:0
Bit depth                                : 10 bits
Scan type                                : Progressive
Bits/(Pixel*Frame)                       : 0.117
Stream size                              : 425 MiB (89%)
Writing library                          : x264 core 148 r2744 b97ae06
Encoding settings                        : cabac=1 / ref=3 / deblock=1:1:-1 / analyse=0x3:0x113 / me=hex / subme=7 / psy=1 / psy_rd=1.00:0.00 / mixed_ref=1 / me_range=16 / chroma_me=1 / trellis=1 / 8x8dct=1 / cqm=0 / deadzone=21,11 / fast_pskip=1 / chroma_qp_offset=-2 / threads=3 / lookahead_threads=1 / sliced_threads=0 / nr=0 / decimate=1 / interlaced=0 / bluray_compat=0 / constrained_intra=0 / bframes=3 / b_pyramid=2 / b_adapt=1 / b_bias=0 / direct=1 / weightb=1 / open_gop=0 / weightp=2 / keyint=240 / keyint_min=23 / scenecut=40 / intra_refresh=0 / rc_lookahead=40 / rc=crf / mbtree=1 / crf=16.0 / qcomp=0.60 / qpmin=0 / qpmax=81 / qpstep=4 / ip_ratio=1.40 / aq=1:1.00
Default                                  : Yes
Forced                                   : No

Audio
ID                                       : 2
Format                                   : AAC
Format/Info                              : Advanced Audio Codec
Format profile                           : LC
Codec ID                                 : A_AAC
Duration                                 : 22 min 56 s
Bit rate                                 : 318 kb/s
Channel(s)                               : 2 channels
Channel positions                        : Front: L R
Sampling rate                            : 48.0 kHz
Frame rate                               : 46.875 FPS (1024 spf)
Compression mode                         : Lossy
Delay relative to video                  : 9 ms
Stream size                              : 52.1 MiB (11%)
Language                                 : Japanese
Default                                  : Yes
Forced                                   : No

Menu
00:00:00.000                             : en:Opening
00:01:30.048                             : en:Part A
00:09:49.964                             : en:Part B
00:21:09.977                             : en:Ending
00:22:39.942                             : en:Preview

Other Files in this Torrent
03 - Let's Go To School & Here Come The Materia Sisters.mkv
beta
Anime DDL+NZB mirror
Current Time: 20/09/2019 19:24



About/FAQs