12 - Last Battle & That Which I Give To You.mkv


File Size952.7 MB (999,013,540 bytes)
DownloadClickNUpload | Jheberg | MultiUp | OpenLoad | Upfile.mobi
Sendspace: Part1, Part2, Part3, Part4
SolidFiles: Part1, Part2
Encrypted DownloadDirect
Password:
HashesCRC32: 7C351A07, MD5: 726DFA47A272157C20B32BF647405821, SHA1: 88F0C6D6781A8DE3A980B8EAD232563766A64AC6, SHA256: 8BFF73619D11950A7A4085C6B018250BECF8CD31BF2D57471BACDEB6D64A231B, ED2K: 063EFEA74DD2F9D0D868AFE6747D72B5
Screenshots
screenshotscreenshotscreenshotscreenshotscreenshot
Additional Info
General
Unique ID                                : 178932188152678706402717708929293536509 (0x869D15FEB5725FAFBCE79555ECF2CCFD)
Complete name                            : 12 - Last Battle & That Which I Give To You.mkv
Format                                   : Matroska
Format version                           : Version 4 / Version 2
File size                                : 953 MiB
Duration                                 : 22 min 56 s
Overall bit rate                         : 5 808 kb/s
Encoded date                             : UTC 2017-11-30 11:40:40
Writing application                      : mkvmerge v13.0.0 ('The Juggler') 32bit
Writing library                          : libebml v1.3.4 + libmatroska v1.4.5
Attachments                              : CALIBRIZ.TTF / coolvetica rg.ttf / Droid Sans.ttf / CALIBRIB.TTF

Video
ID                                       : 1
Format                                   : AVC
Format/Info                              : Advanced Video Codec
Format profile                           : High 10@L3.1
Format settings, CABAC                   : Yes
Format settings, ReFrames                : 4 frames
Codec ID                                 : V_MPEG4/ISO/AVC
Duration                                 : 22 min 56 s
Bit rate                                 : 5 477 kb/s
Width                                    : 1 280 pixels
Height                                   : 720 pixels
Display aspect ratio                     : 16:9
Frame rate mode                          : Constant
Frame rate                               : 23.976 (24000/1001) FPS
Color space                              : YUV
Chroma subsampling                       : 4:2:0
Bit depth                                : 10 bits
Scan type                                : Progressive
Bits/(Pixel*Frame)                       : 0.248
Stream size                              : 898 MiB (94%)
Writing library                          : x264 core 148 r2744 b97ae06
Encoding settings                        : cabac=1 / ref=3 / deblock=1:1:-1 / analyse=0x3:0x113 / me=hex / subme=7 / psy=1 / psy_rd=1.00:0.00 / mixed_ref=1 / me_range=16 / chroma_me=1 / trellis=1 / 8x8dct=1 / cqm=0 / deadzone=21,11 / fast_pskip=1 / chroma_qp_offset=-2 / threads=3 / lookahead_threads=1 / sliced_threads=0 / nr=0 / decimate=1 / interlaced=0 / bluray_compat=0 / constrained_intra=0 / bframes=3 / b_pyramid=2 / b_adapt=1 / b_bias=0 / direct=1 / weightb=1 / open_gop=0 / weightp=2 / keyint=240 / keyint_min=23 / scenecut=40 / intra_refresh=0 / rc_lookahead=40 / rc=crf / mbtree=1 / crf=15.0 / qcomp=0.60 / qpmin=0 / qpmax=81 / qpstep=4 / ip_ratio=1.40 / aq=1:1.00
Default                                  : Yes
Forced                                   : No

Audio
ID                                       : 2
Format                                   : AAC
Format/Info                              : Advanced Audio Codec
Format profile                           : LC
Codec ID                                 : A_AAC
Duration                                 : 22 min 56 s
Bit rate                                 : 316 kb/s
Channel(s)                               : 2 channels
Channel positions                        : Front: L R
Sampling rate                            : 48.0 kHz
Frame rate                               : 46.875 FPS (1024 spf)
Compression mode                         : Lossy
Delay relative to video                  : 9 ms
Stream size                              : 51.9 MiB (5%)
Language                                 : Japanese
Default                                  : Yes
Forced                                   : No

Menu
00:00:00.000                             : en:Part A
00:10:15.949                             : en:Part B
00:15:53.619                             : en:Song no.1
00:18:07.670                             : en:Song no.2
00:19:52.149                             : en:Song no.3
00:21:54.563                             : en:Part C
00:22:37.180                             : en:Stinger

Other Files in this Torrent
12 - Last Battle & That Which I Give To You.mkv
beta
Anime DDL+NZB mirror
Current Time: 17/09/2019 01:50



About/FAQs