File Size158.7 MB (166,359,664 bytes)
DownloadAnonFiles | ClickNUpload | DropAPK | Free | MultiUp
  • BdUpload
  • DownAce
  • Fichier
  • FileCloud
  • Filerio
  • FilesCdn
  • IndiShare
  • Kbagi
  • Turbobit
  • UpToBox
  • Uppit
| Sendspace | SolidFiles | ZippyShare
HashesCRC32: 4EA0357E, MD5: C605FB7F692D2FFBD241BF14F4652AD3, SHA1: CD87D582ED338D9A25E8B0CD4CB36295AB21F2CB, SHA256: 3F528933CE9B7606485D9BC519CDF95C1558B925A50B4CEA1EA75F4B1CBA553B, ED2K: 3366611D5BB4A651EE802CFD6554421C
Screenshots
screenshotscreenshotscreenshotscreenshotscreenshot
SubtitlesAll Attachments | English [eng, ASS], Chinese [chi, ASS], French [fre, ASS], German [ger, ASS], Italian [ita, ASS], Korean [kor, ASS], Portuguese [por, ASS], Spanish1 [spa, ASS], Spanish2 [spa, ASS]
Additional Info
General
Unique ID                                : 216786777794328516248003402515756680935 (0xA3179D5C551DC2868C417AFEEA6506E7)
Complete name                            : [zza] Irozuku Sekai no Ashita kara - 05 [1080p.x265].mkv
Format                                   : Matroska
Format version                           : Version 4
File size                                : 159 MiB
Duration                                 : 24 min 7 s
Overall bit rate                         : 920 kb/s
Movie name                               : [zza] Irozuku Sekai no Ashita kara - 05 - A Modest Recipe
Encoded date                             : UTC 2020-08-01 06:55:14
Writing application                      : mkvmerge v38.0.0 ('The Silent Type') 64-bit
Writing library                          : libebml v1.3.9 + libmatroska v1.5.2
Cover                                    : Yes
Attachments                              : cover.jpg

Video
ID                                       : 1
Format                                   : HEVC
Format/Info                              : High Efficiency Video Coding
Format profile                           : Main 10@L4@Main
Codec ID                                 : V_MPEGH/ISO/HEVC
Duration                                 : 24 min 6 s
Bit rate                                 : 722 kb/s
Width                                    : 1 920 pixels
Height                                   : 1 080 pixels
Display aspect ratio                     : 16:9
Frame rate mode                          : Constant
Frame rate                               : 23.976 (24000/1001) FPS
Color space                              : YUV
Chroma subsampling                       : 4:2:0
Bit depth                                : 10 bits
Bits/(Pixel*Frame)                       : 0.015
Stream size                              : 125 MiB (79%)
Language                                 : zza
Default                                  : Yes
Forced                                   : No
Color range                              : Limited
Color primaries                          : BT.709
Transfer characteristics                 : BT.709
Matrix coefficients                      : BT.709

Audio
ID                                       : 2
Format                                   : E-AC-3
Format/Info                              : Enhanced AC-3
Commercial name                          : Dolby Digital Plus
Codec ID                                 : A_EAC3
Duration                                 : 24 min 7 s
Bit rate mode                            : Constant
Bit rate                                 : 192 kb/s
Channel(s)                               : 2 channels
Channel layout                           : L R
Sampling rate                            : 48.0 kHz
Frame rate                               : 31.250 FPS (1536 SPF)
Compression mode                         : Lossy
Stream size                              : 33.1 MiB (21%)
Language                                 : Japanese
Service kind                             : Complete Main
Default                                  : Yes
Forced                                   : No

Text #1
ID                                       : 3
Format                                   : ASS
Codec ID                                 : S_TEXT/ASS
Codec ID/Info                            : Advanced Sub Station Alpha
Duration                                 : 24 min 4 s
Bit rate                                 : 114 b/s
Count of elements                        : 387
Compression mode                         : Lossless
Stream size                              : 20.2 KiB (0%)
Title                                    : English
Language                                 : English
Default                                  : Yes
Forced                                   : No

Text #2
ID                                       : 4
Format                                   : ASS
Codec ID                                 : S_TEXT/ASS
Codec ID/Info                            : Advanced Sub Station Alpha
Duration                                 : 24 min 3 s
Bit rate                                 : 104 b/s
Count of elements                        : 387
Compression mode                         : Lossless
Stream size                              : 18.4 KiB (0%)
Title                                    : Chinese
Language                                 : Chinese
Default                                  : No
Forced                                   : No

Text #3
ID                                       : 5
Format                                   : ASS
Codec ID                                 : S_TEXT/ASS
Codec ID/Info                            : Advanced Sub Station Alpha
Duration                                 : 24 min 3 s
Bit rate                                 : 116 b/s
Count of elements                        : 395
Compression mode                         : Lossless
Stream size                              : 20.5 KiB (0%)
Title                                    : French
Language                                 : French
Default                                  : No
Forced                                   : No

Text #4
ID                                       : 6
Format                                   : ASS
Codec ID                                 : S_TEXT/ASS
Codec ID/Info                            : Advanced Sub Station Alpha
Duration                                 : 24 min 4 s
Bit rate                                 : 102 b/s
Count of elements                        : 314
Compression mode                         : Lossless
Stream size                              : 18.1 KiB (0%)
Title                                    : German
Language                                 : German
Default                                  : No
Forced                                   : No

Text #5
ID                                       : 7
Format                                   : ASS
Codec ID                                 : S_TEXT/ASS
Codec ID/Info                            : Advanced Sub Station Alpha
Duration                                 : 24 min 3 s
Bit rate                                 : 114 b/s
Count of elements                        : 388
Compression mode                         : Lossless
Stream size                              : 20.2 KiB (0%)
Title                                    : Italian
Language                                 : Italian
Default                                  : No
Forced                                   : No

Text #6
ID                                       : 8
Format                                   : ASS
Codec ID                                 : S_TEXT/ASS
Codec ID/Info                            : Advanced Sub Station Alpha
Duration                                 : 24 min 3 s
Bit rate                                 : 117 b/s
Count of elements                        : 388
Compression mode                         : Lossless
Stream size                              : 20.7 KiB (0%)
Title                                    : Korean
Language                                 : Korean
Default                                  : No
Forced                                   : No

Text #7
ID                                       : 9
Format                                   : ASS
Codec ID                                 : S_TEXT/ASS
Codec ID/Info                            : Advanced Sub Station Alpha
Duration                                 : 24 min 3 s
Bit rate                                 : 112 b/s
Count of elements                        : 387
Compression mode                         : Lossless
Stream size                              : 19.8 KiB (0%)
Title                                    : Portuguese
Language                                 : Portuguese
Default                                  : No
Forced                                   : No

Text #8
ID                                       : 10
Format                                   : ASS
Codec ID                                 : S_TEXT/ASS
Codec ID/Info                            : Advanced Sub Station Alpha
Duration                                 : 24 min 3 s
Bit rate                                 : 115 b/s
Count of elements                        : 388
Compression mode                         : Lossless
Stream size                              : 20.3 KiB (0%)
Title                                    : Spanish1
Language                                 : Spanish
Default                                  : No
Forced                                   : No

Text #9
ID                                       : 11
Format                                   : ASS
Codec ID                                 : S_TEXT/ASS
Codec ID/Info                            : Advanced Sub Station Alpha
Duration                                 : 24 min 3 s
Bit rate                                 : 118 b/s
Count of elements                        : 388
Compression mode                         : Lossless
Stream size                              : 20.9 KiB (0%)
Title                                    : Spanish2
Language                                 : Spanish
Default                                  : No
Forced                                   : No

Other Files in this Torrent
[zza] Irozuku Sekai no Ashita kara - 05 [1080p.x265].mkv
beta
Anime DDL+NZB mirror
Current Time: 24/09/2020 14:31



About/FAQs