File Size155.8 MB (163,393,704 bytes)
DownloadAnonFiles | ClickNUpload | DropAPK | Free | MultiUp
  • BdUpload
  • DownAce
  • Fichier
  • FileCloud
  • Filerio
  • FilesCdn
  • IndiShare
  • Kbagi
  • Turbobit
  • UpToBox
  • Uppit
| Sendspace | SolidFiles | ZippyShare
HashesCRC32: 69B9F3DD, MD5: CA76B2BCA24E2CB4AB35FBC75343F92D, SHA1: 6FD82207214092155AE97D34DE650643A8AA701F, SHA256: 82388328EA657F7CACD1AD3B847923E4A8C6E5FCE452588ED17AA0EB398E7CBA, ED2K: 65448182B60453692FFA8A5B53C00AA3
Screenshots
screenshotscreenshotscreenshotscreenshotscreenshot
SubtitlesAll Attachments | English [eng, ASS], Chinese [chi, ASS], French [fre, ASS], German [ger, ASS], Italian [ita, ASS], Korean [kor, ASS], Portuguese [por, ASS], Spanish1 [spa, ASS], Spanish2 [spa, ASS]
Additional Info
General
Unique ID                                : 134199223322200767769832626419589896041 (0x64F5D48CA37696B5F86237465F06D769)
Complete name                            : [zza] Irozuku Sekai no Ashita kara - 02 [1080p.x265].mkv
Format                                   : Matroska
Format version                           : Version 4
File size                                : 156 MiB
Duration                                 : 24 min 6 s
Overall bit rate                         : 903 kb/s
Movie name                               : [zza] Irozuku Sekai no Ashita kara - 02 - I Can't Stand Magic
Encoded date                             : UTC 2020-08-01 06:54:40
Writing application                      : mkvmerge v38.0.0 ('The Silent Type') 64-bit
Writing library                          : libebml v1.3.9 + libmatroska v1.5.2
Cover                                    : Yes
Attachments                              : cover.jpg

Video
ID                                       : 1
Format                                   : HEVC
Format/Info                              : High Efficiency Video Coding
Format profile                           : Main 10@L4@Main
Codec ID                                 : V_MPEGH/ISO/HEVC
Duration                                 : 24 min 6 s
Bit rate                                 : 706 kb/s
Width                                    : 1 920 pixels
Height                                   : 1 080 pixels
Display aspect ratio                     : 16:9
Frame rate mode                          : Constant
Frame rate                               : 23.976 (24000/1001) FPS
Color space                              : YUV
Chroma subsampling                       : 4:2:0
Bit depth                                : 10 bits
Bits/(Pixel*Frame)                       : 0.014
Stream size                              : 122 MiB (78%)
Language                                 : zza
Default                                  : Yes
Forced                                   : No
Color range                              : Limited
Color primaries                          : BT.709
Transfer characteristics                 : BT.709
Matrix coefficients                      : BT.709

Audio
ID                                       : 2
Format                                   : E-AC-3
Format/Info                              : Enhanced AC-3
Commercial name                          : Dolby Digital Plus
Codec ID                                 : A_EAC3
Duration                                 : 24 min 6 s
Bit rate mode                            : Constant
Bit rate                                 : 192 kb/s
Channel(s)                               : 2 channels
Channel layout                           : L R
Sampling rate                            : 48.0 kHz
Frame rate                               : 31.250 FPS (1536 SPF)
Compression mode                         : Lossy
Stream size                              : 33.1 MiB (21%)
Language                                 : Japanese
Service kind                             : Complete Main
Default                                  : Yes
Forced                                   : No

Text #1
ID                                       : 3
Format                                   : ASS
Codec ID                                 : S_TEXT/ASS
Codec ID/Info                            : Advanced Sub Station Alpha
Duration                                 : 24 min 1 s
Bit rate                                 : 109 b/s
Count of elements                        : 368
Compression mode                         : Lossless
Stream size                              : 19.2 KiB (0%)
Title                                    : English
Language                                 : English
Default                                  : Yes
Forced                                   : No

Text #2
ID                                       : 4
Format                                   : ASS
Codec ID                                 : S_TEXT/ASS
Codec ID/Info                            : Advanced Sub Station Alpha
Duration                                 : 24 min 1 s
Bit rate                                 : 100 b/s
Count of elements                        : 369
Compression mode                         : Lossless
Stream size                              : 17.6 KiB (0%)
Title                                    : Chinese
Language                                 : Chinese
Default                                  : No
Forced                                   : No

Text #3
ID                                       : 5
Format                                   : ASS
Codec ID                                 : S_TEXT/ASS
Codec ID/Info                            : Advanced Sub Station Alpha
Duration                                 : 24 min 1 s
Bit rate                                 : 107 b/s
Count of elements                        : 376
Compression mode                         : Lossless
Stream size                              : 18.9 KiB (0%)
Title                                    : French
Language                                 : French
Default                                  : No
Forced                                   : No

Text #4
ID                                       : 6
Format                                   : ASS
Codec ID                                 : S_TEXT/ASS
Codec ID/Info                            : Advanced Sub Station Alpha
Duration                                 : 24 min 1 s
Bit rate                                 : 97 b/s
Count of elements                        : 300
Compression mode                         : Lossless
Stream size                              : 17.1 KiB (0%)
Title                                    : German
Language                                 : German
Default                                  : No
Forced                                   : No

Text #5
ID                                       : 7
Format                                   : ASS
Codec ID                                 : S_TEXT/ASS
Codec ID/Info                            : Advanced Sub Station Alpha
Duration                                 : 24 min 1 s
Bit rate                                 : 107 b/s
Count of elements                        : 369
Compression mode                         : Lossless
Stream size                              : 19.0 KiB (0%)
Title                                    : Italian
Language                                 : Italian
Default                                  : No
Forced                                   : No

Text #6
ID                                       : 8
Format                                   : ASS
Codec ID                                 : S_TEXT/ASS
Codec ID/Info                            : Advanced Sub Station Alpha
Duration                                 : 24 min 1 s
Bit rate                                 : 114 b/s
Count of elements                        : 369
Compression mode                         : Lossless
Stream size                              : 20.1 KiB (0%)
Title                                    : Korean
Language                                 : Korean
Default                                  : No
Forced                                   : No

Text #7
ID                                       : 9
Format                                   : ASS
Codec ID                                 : S_TEXT/ASS
Codec ID/Info                            : Advanced Sub Station Alpha
Duration                                 : 24 min 1 s
Bit rate                                 : 107 b/s
Count of elements                        : 369
Compression mode                         : Lossless
Stream size                              : 18.9 KiB (0%)
Title                                    : Portuguese
Language                                 : Portuguese
Default                                  : No
Forced                                   : No

Text #8
ID                                       : 10
Format                                   : ASS
Codec ID                                 : S_TEXT/ASS
Codec ID/Info                            : Advanced Sub Station Alpha
Duration                                 : 24 min 1 s
Bit rate                                 : 107 b/s
Count of elements                        : 369
Compression mode                         : Lossless
Stream size                              : 18.8 KiB (0%)
Title                                    : Spanish1
Language                                 : Spanish
Default                                  : No
Forced                                   : No

Text #9
ID                                       : 11
Format                                   : ASS
Codec ID                                 : S_TEXT/ASS
Codec ID/Info                            : Advanced Sub Station Alpha
Duration                                 : 24 min 1 s
Bit rate                                 : 111 b/s
Count of elements                        : 369
Compression mode                         : Lossless
Stream size                              : 19.5 KiB (0%)
Title                                    : Spanish2
Language                                 : Spanish
Default                                  : No
Forced                                   : No

Other Files in this Torrent
[zza] Irozuku Sekai no Ashita kara - 02 [1080p.x265].mkv
beta
Anime DDL+NZB mirror
Current Time: 24/09/2020 14:34



About/FAQs