File Size201.4 MB (211,135,624 bytes)
DownloadAnonFiles | ClickNUpload | DropAPK | Free | MultiUp
  • BdUpload
  • DownAce
  • Fichier
  • FileCloud
  • Filerio
  • FilesCdn
  • IndiShare
  • Kbagi
  • Turbobit
  • UpToBox
  • Uppit
| Sendspace | SolidFiles | ZippyShare
HashesCRC32: 382236DD, MD5: 3BE9096066EABF1B64C4B6E86B3E8C45, SHA1: ADCE02E8AE1C08E7FB2DFE614C66675E76910E93, SHA256: 9ABF156A5F8A5A619BC557E61665A28CF218C353F480876EC2368F6765D395B5, ED2K: A58BB18DE6196329482711002F26027A
Screenshots
screenshotscreenshotscreenshotscreenshotscreenshot
SubtitlesAll Attachments | English [eng, ASS], Chinese [chi, ASS], French [fre, ASS], German [ger, ASS], Italian [ita, ASS], Korean [kor, ASS], Portuguese [por, ASS], Spanish1 [spa, ASS], Spanish2 [spa, ASS]
Additional Info
General
Unique ID                                : 317438576506582356357327702073648467828 (0xEED0722D0A73EEF5EC31109956EDCF74)
Complete name                            : [zza] Irozuku Sekai no Ashita kara - 10 [1080p.x265].mkv
Format                                   : Matroska
Format version                           : Version 4
File size                                : 201 MiB
Duration                                 : 23 min 52 s
Overall bit rate                         : 1 179 kb/s
Movie name                               : [zza] Irozuku Sekai no Ashita kara - 10 - Monochromatic Crayon
Encoded date                             : UTC 2020-08-01 06:56:41
Writing application                      : mkvmerge v38.0.0 ('The Silent Type') 64-bit
Writing library                          : libebml v1.3.9 + libmatroska v1.5.2
Cover                                    : Yes
Attachments                              : cover.jpg

Video
ID                                       : 1
Format                                   : HEVC
Format/Info                              : High Efficiency Video Coding
Format profile                           : Main 10@L4@Main
Codec ID                                 : V_MPEGH/ISO/HEVC
Duration                                 : 23 min 52 s
Bit rate                                 : 982 kb/s
Width                                    : 1 920 pixels
Height                                   : 1 080 pixels
Display aspect ratio                     : 16:9
Frame rate mode                          : Constant
Frame rate                               : 23.976 (24000/1001) FPS
Color space                              : YUV
Chroma subsampling                       : 4:2:0
Bit depth                                : 10 bits
Bits/(Pixel*Frame)                       : 0.020
Stream size                              : 168 MiB (83%)
Language                                 : zza
Default                                  : Yes
Forced                                   : No
Color range                              : Limited
Color primaries                          : BT.709
Transfer characteristics                 : BT.709
Matrix coefficients                      : BT.709

Audio
ID                                       : 2
Format                                   : E-AC-3
Format/Info                              : Enhanced AC-3
Commercial name                          : Dolby Digital Plus
Codec ID                                 : A_EAC3
Duration                                 : 23 min 52 s
Bit rate mode                            : Constant
Bit rate                                 : 192 kb/s
Channel(s)                               : 2 channels
Channel layout                           : L R
Sampling rate                            : 48.0 kHz
Frame rate                               : 31.250 FPS (1536 SPF)
Compression mode                         : Lossy
Stream size                              : 32.8 MiB (16%)
Language                                 : Japanese
Service kind                             : Complete Main
Default                                  : Yes
Forced                                   : No

Text #1
ID                                       : 3
Format                                   : ASS
Codec ID                                 : S_TEXT/ASS
Codec ID/Info                            : Advanced Sub Station Alpha
Duration                                 : 23 min 48 s
Bit rate                                 : 90 b/s
Count of elements                        : 316
Compression mode                         : Lossless
Stream size                              : 15.8 KiB (0%)
Title                                    : English
Language                                 : English
Default                                  : Yes
Forced                                   : No

Text #2
ID                                       : 4
Format                                   : ASS
Codec ID                                 : S_TEXT/ASS
Codec ID/Info                            : Advanced Sub Station Alpha
Duration                                 : 23 min 48 s
Bit rate                                 : 82 b/s
Count of elements                        : 316
Compression mode                         : Lossless
Stream size                              : 14.4 KiB (0%)
Title                                    : Chinese
Language                                 : Chinese
Default                                  : No
Forced                                   : No

Text #3
ID                                       : 5
Format                                   : ASS
Codec ID                                 : S_TEXT/ASS
Codec ID/Info                            : Advanced Sub Station Alpha
Duration                                 : 23 min 48 s
Bit rate                                 : 89 b/s
Count of elements                        : 316
Compression mode                         : Lossless
Stream size                              : 15.6 KiB (0%)
Title                                    : French
Language                                 : French
Default                                  : No
Forced                                   : No

Text #4
ID                                       : 6
Format                                   : ASS
Codec ID                                 : S_TEXT/ASS
Codec ID/Info                            : Advanced Sub Station Alpha
Duration                                 : 23 min 48 s
Bit rate                                 : 81 b/s
Count of elements                        : 258
Compression mode                         : Lossless
Stream size                              : 14.2 KiB (0%)
Title                                    : German
Language                                 : German
Default                                  : No
Forced                                   : No

Text #5
ID                                       : 7
Format                                   : ASS
Codec ID                                 : S_TEXT/ASS
Codec ID/Info                            : Advanced Sub Station Alpha
Duration                                 : 23 min 48 s
Bit rate                                 : 90 b/s
Count of elements                        : 315
Compression mode                         : Lossless
Stream size                              : 15.8 KiB (0%)
Title                                    : Italian
Language                                 : Italian
Default                                  : No
Forced                                   : No

Text #6
ID                                       : 8
Format                                   : ASS
Codec ID                                 : S_TEXT/ASS
Codec ID/Info                            : Advanced Sub Station Alpha
Duration                                 : 23 min 48 s
Bit rate                                 : 93 b/s
Count of elements                        : 316
Compression mode                         : Lossless
Stream size                              : 16.2 KiB (0%)
Title                                    : Korean
Language                                 : Korean
Default                                  : No
Forced                                   : No

Text #7
ID                                       : 9
Format                                   : ASS
Codec ID                                 : S_TEXT/ASS
Codec ID/Info                            : Advanced Sub Station Alpha
Duration                                 : 23 min 48 s
Bit rate                                 : 89 b/s
Count of elements                        : 315
Compression mode                         : Lossless
Stream size                              : 15.7 KiB (0%)
Title                                    : Portuguese
Language                                 : Portuguese
Default                                  : No
Forced                                   : No

Text #8
ID                                       : 10
Format                                   : ASS
Codec ID                                 : S_TEXT/ASS
Codec ID/Info                            : Advanced Sub Station Alpha
Duration                                 : 23 min 48 s
Bit rate                                 : 90 b/s
Count of elements                        : 317
Compression mode                         : Lossless
Stream size                              : 15.8 KiB (0%)
Title                                    : Spanish1
Language                                 : Spanish
Default                                  : No
Forced                                   : No

Text #9
ID                                       : 11
Format                                   : ASS
Codec ID                                 : S_TEXT/ASS
Codec ID/Info                            : Advanced Sub Station Alpha
Duration                                 : 23 min 48 s
Bit rate                                 : 92 b/s
Count of elements                        : 310
Compression mode                         : Lossless
Stream size                              : 16.2 KiB (0%)
Title                                    : Spanish2
Language                                 : Spanish
Default                                  : No
Forced                                   : No

Other Files in this Torrent
[zza] Irozuku Sekai no Ashita kara - 10 [1080p.x265].mkv
beta
Anime DDL+NZB mirror
Current Time: 24/09/2020 14:46



About/FAQs