File Size147.7 MB (154,863,401 bytes)
DownloadAnonFiles | ClickNUpload | DropAPK | Free | MultiUp
  • BdUpload
  • DownAce
  • Fichier
  • FileCloud
  • Filerio
  • FilesCdn
  • IndiShare
  • Kbagi
  • Turbobit
  • UpToBox
  • Uppit
| Sendspace | SolidFiles | ZippyShare
HashesCRC32: F8C3561A, MD5: 3C344E03B749F37396FD9390EBE1BD6F, SHA1: BA1FE3A829CC418476DADA8303CDD706D6067D5C, SHA256: 42306E35DFA9DD918EB12BBB747D81F4FB81939B5326DE496E5C941D2C55E6F7, ED2K: 8DBCC3C5D2D18F4AC499BA2DE1D97C56
Screenshots
screenshotscreenshotscreenshotscreenshotscreenshot
SubtitlesAll Attachments | English [eng, ASS], Chinese [chi, ASS], French [fre, ASS], German [ger, ASS], Italian [ita, ASS], Korean [kor, ASS], Portuguese [por, ASS], Spanish1 [spa, ASS], Spanish2 [spa, ASS]
Additional Info
General
Unique ID                                : 290681499934768414020953142267808149306 (0xDAAF3872B6729C5F09FB4E4CFFAD6F3A)
Complete name                            : [zza] Irozuku Sekai no Ashita kara - 04 [1080p.x265].mkv
Format                                   : Matroska
Format version                           : Version 4
File size                                : 148 MiB
Duration                                 : 24 min 7 s
Overall bit rate                         : 856 kb/s
Movie name                               : [zza] Irozuku Sekai no Ashita kara - 04 - Stop Calling Me Granny!
Encoded date                             : UTC 2020-08-01 06:55:02
Writing application                      : mkvmerge v38.0.0 ('The Silent Type') 64-bit
Writing library                          : libebml v1.3.9 + libmatroska v1.5.2
Cover                                    : Yes
Attachments                              : cover.jpg

Video
ID                                       : 1
Format                                   : HEVC
Format/Info                              : High Efficiency Video Coding
Format profile                           : Main 10@L4@Main
Codec ID                                 : V_MPEGH/ISO/HEVC
Duration                                 : 24 min 6 s
Bit rate                                 : 659 kb/s
Width                                    : 1 920 pixels
Height                                   : 1 080 pixels
Display aspect ratio                     : 16:9
Frame rate mode                          : Constant
Frame rate                               : 23.976 (24000/1001) FPS
Color space                              : YUV
Chroma subsampling                       : 4:2:0
Bit depth                                : 10 bits
Bits/(Pixel*Frame)                       : 0.013
Stream size                              : 114 MiB (77%)
Language                                 : zza
Default                                  : Yes
Forced                                   : No
Color range                              : Limited
Color primaries                          : BT.709
Transfer characteristics                 : BT.709
Matrix coefficients                      : BT.709

Audio
ID                                       : 2
Format                                   : E-AC-3
Format/Info                              : Enhanced AC-3
Commercial name                          : Dolby Digital Plus
Codec ID                                 : A_EAC3
Duration                                 : 24 min 7 s
Bit rate mode                            : Constant
Bit rate                                 : 192 kb/s
Channel(s)                               : 2 channels
Channel layout                           : L R
Sampling rate                            : 48.0 kHz
Frame rate                               : 31.250 FPS (1536 SPF)
Compression mode                         : Lossy
Stream size                              : 33.1 MiB (22%)
Language                                 : Japanese
Service kind                             : Complete Main
Default                                  : Yes
Forced                                   : No

Text #1
ID                                       : 3
Format                                   : ASS
Codec ID                                 : S_TEXT/ASS
Codec ID/Info                            : Advanced Sub Station Alpha
Duration                                 : 23 min 52 s
Bit rate                                 : 124 b/s
Count of elements                        : 405
Compression mode                         : Lossless
Stream size                              : 21.8 KiB (0%)
Title                                    : English
Language                                 : English
Default                                  : Yes
Forced                                   : No

Text #2
ID                                       : 4
Format                                   : ASS
Codec ID                                 : S_TEXT/ASS
Codec ID/Info                            : Advanced Sub Station Alpha
Duration                                 : 23 min 52 s
Bit rate                                 : 115 b/s
Count of elements                        : 405
Compression mode                         : Lossless
Stream size                              : 20.3 KiB (0%)
Title                                    : Chinese
Language                                 : Chinese
Default                                  : No
Forced                                   : No

Text #3
ID                                       : 5
Format                                   : ASS
Codec ID                                 : S_TEXT/ASS
Codec ID/Info                            : Advanced Sub Station Alpha
Duration                                 : 23 min 51 s
Bit rate                                 : 120 b/s
Count of elements                        : 413
Compression mode                         : Lossless
Stream size                              : 21.0 KiB (0%)
Title                                    : French
Language                                 : French
Default                                  : No
Forced                                   : No

Text #4
ID                                       : 6
Format                                   : ASS
Codec ID                                 : S_TEXT/ASS
Codec ID/Info                            : Advanced Sub Station Alpha
Duration                                 : 23 min 52 s
Bit rate                                 : 110 b/s
Count of elements                        : 327
Compression mode                         : Lossless
Stream size                              : 19.4 KiB (0%)
Title                                    : German
Language                                 : German
Default                                  : No
Forced                                   : No

Text #5
ID                                       : 7
Format                                   : ASS
Codec ID                                 : S_TEXT/ASS
Codec ID/Info                            : Advanced Sub Station Alpha
Duration                                 : 23 min 52 s
Bit rate                                 : 121 b/s
Count of elements                        : 404
Compression mode                         : Lossless
Stream size                              : 21.2 KiB (0%)
Title                                    : Italian
Language                                 : Italian
Default                                  : No
Forced                                   : No

Text #6
ID                                       : 8
Format                                   : ASS
Codec ID                                 : S_TEXT/ASS
Codec ID/Info                            : Advanced Sub Station Alpha
Duration                                 : 23 min 52 s
Bit rate                                 : 128 b/s
Count of elements                        : 405
Compression mode                         : Lossless
Stream size                              : 22.5 KiB (0%)
Title                                    : Korean
Language                                 : Korean
Default                                  : No
Forced                                   : No

Text #7
ID                                       : 9
Format                                   : ASS
Codec ID                                 : S_TEXT/ASS
Codec ID/Info                            : Advanced Sub Station Alpha
Duration                                 : 23 min 52 s
Bit rate                                 : 119 b/s
Count of elements                        : 404
Compression mode                         : Lossless
Stream size                              : 20.9 KiB (0%)
Title                                    : Portuguese
Language                                 : Portuguese
Default                                  : No
Forced                                   : No

Text #8
ID                                       : 10
Format                                   : ASS
Codec ID                                 : S_TEXT/ASS
Codec ID/Info                            : Advanced Sub Station Alpha
Duration                                 : 23 min 52 s
Bit rate                                 : 121 b/s
Count of elements                        : 405
Compression mode                         : Lossless
Stream size                              : 21.3 KiB (0%)
Title                                    : Spanish1
Language                                 : Spanish
Default                                  : No
Forced                                   : No

Text #9
ID                                       : 11
Format                                   : ASS
Codec ID                                 : S_TEXT/ASS
Codec ID/Info                            : Advanced Sub Station Alpha
Duration                                 : 23 min 52 s
Bit rate                                 : 126 b/s
Count of elements                        : 405
Compression mode                         : Lossless
Stream size                              : 22.1 KiB (0%)
Title                                    : Spanish2
Language                                 : Spanish
Default                                  : No
Forced                                   : No

Other Files in this Torrent
[zza] Irozuku Sekai no Ashita kara - 04 [1080p.x265].mkv
beta
Anime DDL+NZB mirror
Current Time: 24/09/2020 14:42



About/FAQs