[XerBlade] Gundam SEED Destiny HD Remaster - 23 - The Shadows of War [BD 1080p x265 10-bit Opus][7F7A526A].mkv


File Size309.5 MB (324,536,063 bytes)
DownloadAnonFiles | ClickNUpload | DownloadGG | KrakenFiles | MultiUp
  • BdUpload
  • DownAce
  • Fichier
  • FileCloud
  • Filerio
  • FilesCdn
  • IndiShare
  • Kbagi
  • Turbobit
  • UpToBox
  • Uppit
| ZippyShare
HashesCRC32: 7F7A526A, MD5: 6D8F0CDB92E7584E0824DDAC0E0CC5BA, SHA1: 52193B3A1D50E4CA0DB4BEB958BE00DE364F4B8E, SHA256: 083A18811ECA15490B03EC6155089F6C3A5CEB79E7F31EFABB4FF5314029B60A, ED2K: D70890589B3C5F92769D120B692C5BA6
Screenshots
screenshotscreenshotscreenshotscreenshotscreenshot
SubtitlesAll Attachments | Full [eng, ASS], Signs/Songs [eng, ASS]
Additional Info
General
Unique ID                                : 339075346435541184684908747217802301255 (0xFF17894BA2E506B1651D6966DAEB0F47)
Complete name                            : [XerBlade] Gundam SEED Destiny HD Remaster - 23 - The Shadows of War [BD 1080p x265 10-bit Opus][7F7A526A].mkv
Format                                   : Matroska
Format version                           : Version 4
File size                                : 310 MiB
Duration                                 : 23 min 53 s
Overall bit rate                         : 1 812 kb/s
Movie name                               : [XerBlade] Mobile Suit Gundam SEED Destiny HD Remaster - 23 - The Shadows of War [BD 1080p x265 10-bit Opus]
Encoded date                             : UTC 2023-01-17 16:42:02
Writing application                      : mkvmerge v73.0.0 ('25 or 6 to 4') 64-bit
Writing library                          : libebml v1.4.4 + libmatroska v1.7.1
Attachments                              : zrnic.ttf / Delius-Regular.ttf / GANDHISANS-BOLD.OTF / GANDHISANS-BOLDITALIC.OTF / jabcedhy.ttf / Prototype.ttf

Video
ID                                       : 1
Format                                   : HEVC
Format/Info                              : High Efficiency Video Coding
Format profile                           : Main 10@L4@Main
Codec ID                                 : V_MPEGH/ISO/HEVC
Duration                                 : 23 min 53 s
Bit rate                                 : 1 443 kb/s
Width                                    : 1 920 pixels
Height                                   : 1 080 pixels
Display aspect ratio                     : 16:9
Frame rate mode                          : Constant
Frame rate                               : 23.976 (24000/1001) FPS
Color space                              : YUV
Chroma subsampling                       : 4:2:0 (Type 0)
Bit depth                                : 10 bits
Bits/(Pixel*Frame)                       : 0.029
Stream size                              : 247 MiB (80%)
Title                                    : [XerBlade] x265 10-bit
Writing library                          : x265 3.5+1-f0c1022b6:[Windows][GCC 10.2.0][64 bit] 10bit
Encoding settings                        : cpuid=1111039 / frame-threads=3 / numa-pools=12 / wpp / no-pmode / no-pme / no-psnr / no-ssim / log-level=2 / input-csp=1 / input-res=1920x1080 / interlace=0 / total-frames=0 / level-idc=0 / high-tier=1 / uhd-bd=0 / ref=4 / no-allow-non-conformance / no-repeat-headers / annexb / no-aud / no-hrd / info / hash=0 / no-temporal-layers / open-gop / min-keyint=24 / keyint=240 / gop-lookahead=0 / bframes=6 / b-adapt=2 / b-pyramid / bframe-bias=0 / rc-lookahead=25 / lookahead-slices=4 / scenecut=40 / hist-scenecut=0 / radl=0 / no-splice / no-intra-refresh / ctu=64 / min-cu-size=8 / rect / no-amp / max-tu-size=32 / tu-inter-depth=1 / tu-intra-depth=1 / limit-tu=0 / rdoq-level=2 / dynamic-rd=0.00 / no-ssim-rd / signhide / no-tskip / nr-intra=0 / nr-inter=0 / no-constrained-intra / strong-intra-smoothing / max-merge=3 / limit-refs=3 / limit-modes / me=3 / subme=3 / merange=57 / temporal-mvp / no-frame-dup / no-hme / weightp / no-weightb / no-analyze-src-pics / deblock=1:1 / sao / no-sao-non-deblock / rd=4 / selective-sao=4 / no-early-skip / rskip / no-fast-intra / no-tskip-fast / no-cu-lossless / no-b-intra / no-splitrd-skip / rdpenalty=0 / psy-rd=0.40 / psy-rdoq=1.00 / no-rd-refine / no-lossless / cbqpoffs=0 / crqpoffs=0 / rc=crf / crf=22.5 / qcomp=0.60 / qpstep=4 / stats-write=0 / stats-read=0 / ipratio=1.40 / pbratio=1.30 / aq-mode=2 / aq-strength=0.40 / cutree / zone-count=0 / no-strict-cbr / qg-size=32 / no-rc-grain / qpmax=69 / qpmin=0 / no-const-vbv / sar=1 / overscan=0 / videoformat=5 / range=0 / colorprim=1 / transfer=1 / colormatrix=1 / chromaloc=1 / chromaloc-top=0 / chromaloc-bottom=0 / display-window=0 / cll=0,0 / min-luma=0 / max-luma=1023 / log2-max-poc-lsb=8 / vui-timing-info / vui-hrd-info / slices=1 / no-opt-qp-pps / no-opt-ref-list-length-pps / no-multi-pass-opt-rps / scenecut-bias=0.05 / hist-threshold=0.03 / no-opt-cu-delta-qp / no-aq-motion / no-hdr10 / no-hdr10-opt / no-dhdr10-opt / no-idr-recovery-sei / analysis-reuse-level=0 / analysis-save-reuse-level=0 / analysis-load-reuse-level=0 / scale-factor=0 / refine-intra=0 / refine-inter=0 / refine-mv=1 / refine-ctu-distortion=0 / no-limit-sao / ctu-info=0 / no-lowpass-dct / refine-analysis-type=0 / copy-pic=1 / max-ausize-factor=1.0 / no-dynamic-refine / no-single-sei / no-hevc-aq / no-svt / no-field / qp-adaptation-range=1.00 / scenecut-aware-qp=0conformance-window-offsets / right=0 / bottom=0 / decoder-max-rate=0 / no-vbv-live-multi-pass
Language                                 : Japanese
Default                                  : Yes
Forced                                   : No
Color range                              : Limited
Color primaries                          : BT.709
Transfer characteristics                 : BT.709
Matrix coefficients                      : BT.709

Audio #1
ID                                       : 2
Format                                   : Opus
Codec ID                                 : A_OPUS
Duration                                 : 23 min 53 s
Bit rate                                 : 121 kb/s
Channel(s)                               : 2 channels
Channel layout                           : L R
Sampling rate                            : 48.0 kHz
Frame rate                               : 50.000 FPS (960 SPF)
Compression mode                         : Lossy
Delay relative to video                  : -7 ms
Stream size                              : 20.7 MiB (7%)
Title                                    : Japanese [Opus 128 kb/s]
Language                                 : Japanese
Default                                  : Yes
Forced                                   : No

Audio #2
ID                                       : 3
Format                                   : Opus
Codec ID                                 : A_OPUS
Duration                                 : 23 min 52 s
Bit rate                                 : 121 kb/s
Channel(s)                               : 2 channels
Channel layout                           : L R
Sampling rate                            : 48.0 kHz
Frame rate                               : 50.000 FPS (960 SPF)
Compression mode                         : Lossy
Delay relative to video                  : -7 ms
Stream size                              : 20.7 MiB (7%)
Title                                    : English — Ocean Productions (Bandai) [Opus 128 kb/s]
Language                                 : English
Default                                  : Yes
Forced                                   : No

Audio #3
ID                                       : 4
Format                                   : Opus
Codec ID                                 : A_OPUS
Duration                                 : 23 min 53 s
Bit rate                                 : 120 kb/s
Channel(s)                               : 2 channels
Channel layout                           : L R
Sampling rate                            : 48.0 kHz
Frame rate                               : 50.000 FPS (960 SPF)
Compression mode                         : Lossy
Delay relative to video                  : 18 ms
Stream size                              : 20.5 MiB (7%)
Title                                    : English — NYAV Post (Right Stuff/Sunrise) [Opus 128 kb/s]
Language                                 : English
Default                                  : No
Forced                                   : No

Text #1
ID                                       : 5
Format                                   : ASS
Codec ID                                 : S_TEXT/ASS
Codec ID/Info                            : Advanced Sub Station Alpha
Duration                                 : 23 min 50 s
Bit rate                                 : 164 b/s
Count of elements                        : 352
Compression mode                         : Lossless
Stream size                              : 28.7 KiB (0%)
Title                                    : Full
Language                                 : English
Default                                  : Yes
Forced                                   : No

Text #2
ID                                       : 6
Format                                   : ASS
Codec ID                                 : S_TEXT/ASS
Codec ID/Info                            : Advanced Sub Station Alpha
Duration                                 : 22 min 40 s
Bit rate                                 : 92 b/s
Count of elements                        : 126
Compression mode                         : Lossless
Stream size                              : 15.4 KiB (0%)
Title                                    : Signs/Songs
Language                                 : English
Default                                  : No
Forced                                   : Yes

Menu
00:00:00.000                             : :Avant
00:01:11.029                             : :Opening
00:02:43.038                             : :A Part
00:11:59.010                             : :B Part
00:21:52.812                             : :Ending
00:23:22.026                             : :Preview

Other Files in this Torrent
[XerBlade] Gundam SEED Destiny HD Remaster - 23 - The Shadows of War [BD 1080p x265 10-bit Opus][7F7A526A].mkv
beta
Anime DDL+NZB mirror
Current Time: 12/07/2024 10:16



About/FAQs

Discord