File Size696.3 MB (730,111,031 bytes)
DownloadAnonFiles | ClickNUpload | DropAPK | Free
MultiUp: Part1
  • BdUpload
  • DownAce
  • Fichier
  • FileCloud
  • Filerio
  • FilesCdn
  • IndiShare
  • Kbagi
  • Turbobit
  • UpToBox
  • Uppit
, Part2
  • BdUpload
  • DownAce
  • Fichier
  • FileCloud
  • Filerio
  • FilesCdn
  • IndiShare
  • Kbagi
  • Turbobit
  • UpToBox
  • Uppit

SolidFiles: Part1, Part2
ZippyShare: Part1, Part2
HashesCRC32: 2FAB4119, MD5: DB10F511FC802EEE393835759CB29B81, SHA1: 6BC7EE6AAFAC35C4D447F287A480BEDC8B3A492E, SHA256: 0422A525D14F0BF61F123F85A3065836F367C8C7CF7303EFD373928331B45E6C, ED2K: A9ADE36EB1EAA6F7BCA29ECB846A61E6
Screenshots
screenshotscreenshotscreenshotscreenshotscreenshot
SubtitlesAll Attachments | Signs & Songs (SSA) [eng, ASS], Asakura/LostYears (SSA) [eng, ASS]
Additional Info
General
Unique ID                                : 305914244509204427170600541901016348229 (0xE624F0BD7F1C66AB48304F836C193645)
Complete name                            : That Time I Got Reincarnated as a Slime - OAD 04 (Hi10 810p CR Dual Audio WEBRip KaiDubs).mkv
Format                                   : Matroska
Format version                           : Version 4
File size                                : 696 MiB
Duration                                 : 23 min 48 s
Overall bit rate mode                    : Variable
Overall bit rate                         : 4 089 kb/s
Movie name                               : Extra: Rimuru's Glamorous Life as a Teacher, Part 2
Encoded date                             : UTC 2021-01-12 23:06:18
Writing application                      : mkvmerge v52.0.0 ('Secret For The Mad') 64-bit
Writing library                          : libebml v1.4.1 + libmatroska v1.6.2
Attachments                              : Dimbo Regular.ttf / Gandhisans-Bold.otf / Gandhisans-Bolditalic.otf / Linbiolinum_Rb.ttf / SWZ721M.ttf / Abbey Md_PFLNormal.ttf / arial_0.ttf

Video
ID                                       : 1
Format                                   : AVC
Format/Info                              : Advanced Video Codec
Format profile                           : High 10@L5.1
Format settings                          : CABAC / 16 Ref Frames
Format settings, CABAC                   : Yes
Format settings, ReFrames                : 16 frames
Codec ID                                 : V_MPEG4/ISO/AVC
Duration                                 : 23 min 48 s
Bit rate                                 : 3 030 kb/s
Width                                    : 1 440 pixels
Height                                   : 810 pixels
Display aspect ratio                     : 16:9
Frame rate mode                          : Constant
Frame rate                               : 23.976 (24000/1001) FPS
Color space                              : YUV
Chroma subsampling                       : 4:2:0
Bit depth                                : 10 bits
Scan type                                : Progressive
Bits/(Pixel*Frame)                       : 0.108
Stream size                              : 516 MiB (74%)
Title                                    : KaiDubs
Writing library                          : x264 core 161 r3032 6bc7fe4
Encoding settings                        : cabac=1 / ref=16 / deblock=1:-1:-1 / analyse=0x3:0x133 / me=umh / subme=11 / psy=1 / psy_rd=0.70:0.00 / mixed_ref=1 / me_range=24 / chroma_me=1 / trellis=2 / 8x8dct=1 / cqm=0 / deadzone=21,11 / fast_pskip=0 / chroma_qp_offset=-2 / threads=8 / lookahead_threads=2 / sliced_threads=0 / nr=0 / decimate=1 / interlaced=0 / bluray_compat=0 / constrained_intra=0 / bframes=16 / b_pyramid=2 / b_adapt=2 / b_bias=0 / direct=1 / weightb=1 / open_gop=0 / weightp=2 / keyint=240 / keyint_min=24 / scenecut=40 / intra_refresh=0 / rc=crf / mbtree=0 / crf=16.0 / qcomp=0.60 / qpmin=0 / qpmax=81 / qpstep=4 / ip_ratio=1.40 / pb_ratio=1.30 / aq=3:0.75
Language                                 : English
Default                                  : Yes
Forced                                   : No
Color range                              : Limited
Color primaries                          : BT.709
Transfer characteristics                 : BT.709
Matrix coefficients                      : BT.709

Audio #1
ID                                       : 2
Format                                   : AAC LC
Format/Info                              : Advanced Audio Codec Low Complexity
Codec ID                                 : A_AAC-2
Duration                                 : 23 min 47 s
Bit rate                                 : 253 kb/s
Channel(s)                               : 2 channels
Channel layout                           : L R
Sampling rate                            : 48.0 kHz
Frame rate                               : 46.875 FPS (1024 SPF)
Compression mode                         : Lossy
Delay relative to video                  : 1 s 56 ms
Stream size                              : 43.1 MiB (6%)
Title                                    : English (WEB, 2.0 AAC)
Language                                 : English
Default                                  : Yes
Forced                                   : No

Audio #2
ID                                       : 3
Format                                   : FLAC
Format/Info                              : Free Lossless Audio Codec
Codec ID                                 : A_FLAC
Duration                                 : 23 min 47 s
Bit rate mode                            : Variable
Bit rate                                 : 790 kb/s
Channel(s)                               : 2 channels
Channel layout                           : L R
Sampling rate                            : 48.0 kHz
Frame rate                               : 11.719 FPS (4096 SPF)
Bit depth                                : 16 bits
Compression mode                         : Lossless
Delay relative to video                  : 58 ms
Stream size                              : 134 MiB (19%)
Title                                    : Japanese (JPDVD, 2.0 FLAC)
Writing library                          : libFLAC 1.3.3 (UTC 2019-08-04)
Language                                 : Japanese
Default                                  : No
Forced                                   : No

Text #1
ID                                       : 4
Format                                   : ASS
Codec ID                                 : S_TEXT/ASS
Codec ID/Info                            : Advanced Sub Station Alpha
Duration                                 : 23 min 31 s
Bit rate                                 : 2 562 b/s
Count of elements                        : 4245
Compression mode                         : Lossless
Stream size                              : 442 KiB (0%)
Title                                    : Signs & Songs (SSA)
Language                                 : English
Default                                  : Yes
Forced                                   : No

Text #2
ID                                       : 5
Format                                   : ASS
Codec ID                                 : S_TEXT/ASS
Codec ID/Info                            : Advanced Sub Station Alpha
Duration                                 : 23 min 31 s
Bit rate                                 : 2 681 b/s
Count of elements                        : 4609
Compression mode                         : Lossless
Stream size                              : 462 KiB (0%)
Title                                    : Asakura/LostYears (SSA)
Language                                 : English
Default                                  : No
Forced                                   : No

Menu
00:00:00.033                             : en:OP
00:01:30.980                             : en:Episode
00:22:17.440                             : en:ED

Other Files in this Torrent
That Time I Got Reincarnated as a Slime - OAD 04 (Hi10 810p CR Dual Audio WEBRip KaiDubs).mkv
beta
Anime DDL+NZB mirror
Current Time: 18/06/2024 15:59



About/FAQs

Discord