File Size827.7 MB (867,922,401 bytes)
DownloadAnonFiles | ClickNUpload | DropAPK | Free
MultiUp: Part1
  • BdUpload
  • DownAce
  • Fichier
  • FileCloud
  • Filerio
  • FilesCdn
  • IndiShare
  • Kbagi
  • Turbobit
  • UpToBox
  • Uppit
, Part2
  • BdUpload
  • DownAce
  • Fichier
  • FileCloud
  • Filerio
  • FilesCdn
  • IndiShare
  • Kbagi
  • Turbobit
  • UpToBox
  • Uppit

SolidFiles: Part1, Part2
ZippyShare: Part1, Part2
HashesCRC32: 60860167, MD5: F9604217D74794B63EB0C28E32D85BF8, SHA1: E8C59D9336B4F2EE1ADE63EF8E1FBB5EF1EC52F3, SHA256: 5D8B177792AF82FA8D6DBFA53F781897B37ED6C050BE73DEFCDAF0692B92AB7C, ED2K: 5EA2E029AB339827785720B883D75DD6
Screenshots
screenshotscreenshotscreenshotscreenshotscreenshot
SubtitlesAll Attachments | Signs & Songs (SSA) [und, ASS], Asakura/LostYears (SSA) [und, ASS]
Additional Info
General
Unique ID                                : 17627083098424483303788051307693689946 (0xD42DA4BABBDE296F14000D793194C5A)
Complete name                            : That Time I Got Reincarnated as a Slime - OAD 02 (Hi10 810p CR Dual Audio WEBRip KaiDubs).mkv
Format                                   : Matroska
Format version                           : Version 4
File size                                : 828 MiB
Duration                                 : 23 min 16 s
Overall bit rate mode                    : Variable
Overall bit rate                         : 4 973 kb/s
Movie name                               : Extra: The Tragedy of M
Encoded date                             : UTC 2021-01-14 04:21:11
Writing application                      : mkvmerge v52.0.0 ('Secret For The Mad') 64-bit
Writing library                          : libebml v1.4.1 + libmatroska v1.6.2
Attachments                              : Dimbo Regular.ttf / Gandhisans-Bold.otf / Gandhisans-Bolditalic.otf / Linbiolinum_Rb.ttf / Alex_Bold.ttf / Architex.ttf / ATAmigoRegular.ttf / CerigoStd-Medium.otf / Creepster-Regular.ttf

Video
ID                                       : 1
Format                                   : AVC
Format/Info                              : Advanced Video Codec
Format profile                           : High 10@L5.1
Format settings                          : CABAC / 16 Ref Frames
Format settings, CABAC                   : Yes
Format settings, ReFrames                : 16 frames
Codec ID                                 : V_MPEG4/ISO/AVC
Duration                                 : 23 min 16 s
Bit rate                                 : 3 788 kb/s
Width                                    : 1 440 pixels
Height                                   : 810 pixels
Display aspect ratio                     : 16:9
Frame rate mode                          : Constant
Frame rate                               : 23.976 (24000/1001) FPS
Color space                              : YUV
Chroma subsampling                       : 4:2:0
Bit depth                                : 10 bits
Scan type                                : Progressive
Bits/(Pixel*Frame)                       : 0.135
Stream size                              : 630 MiB (76%)
Title                                    : KaiDubs
Writing library                          : x264 core 161 r3032 6bc7fe4
Encoding settings                        : cabac=1 / ref=16 / deblock=1:-1:-1 / analyse=0x3:0x133 / me=umh / subme=11 / psy=1 / psy_rd=0.70:0.00 / mixed_ref=1 / me_range=24 / chroma_me=1 / trellis=2 / 8x8dct=1 / cqm=0 / deadzone=21,11 / fast_pskip=0 / chroma_qp_offset=-2 / threads=8 / lookahead_threads=2 / sliced_threads=0 / nr=0 / decimate=1 / interlaced=0 / bluray_compat=0 / constrained_intra=0 / bframes=16 / b_pyramid=2 / b_adapt=2 / b_bias=0 / direct=1 / weightb=1 / open_gop=0 / weightp=2 / keyint=240 / keyint_min=24 / scenecut=40 / intra_refresh=0 / rc=crf / mbtree=0 / crf=16.0 / qcomp=0.60 / qpmin=0 / qpmax=81 / qpstep=4 / ip_ratio=1.40 / pb_ratio=1.30 / aq=3:0.75
Language                                 : English
Default                                  : Yes
Forced                                   : No
Color range                              : Limited
Color primaries                          : BT.709
Transfer characteristics                 : BT.709
Matrix coefficients                      : BT.709

Audio #1
ID                                       : 2
Format                                   : AAC LC
Format/Info                              : Advanced Audio Codec Low Complexity
Codec ID                                 : A_AAC-2
Duration                                 : 23 min 16 s
Bit rate                                 : 253 kb/s
Channel(s)                               : 2 channels
Channel layout                           : L R
Sampling rate                            : 48.0 kHz
Frame rate                               : 46.875 FPS (1024 SPF)
Compression mode                         : Lossy
Stream size                              : 42.2 MiB (5%)
Title                                    : English (WEB, 2.0 AAC)
Language                                 : English
Default                                  : Yes
Forced                                   : No

Audio #2
ID                                       : 3
Format                                   : FLAC
Format/Info                              : Free Lossless Audio Codec
Codec ID                                 : A_FLAC
Duration                                 : 23 min 16 s
Bit rate mode                            : Variable
Bit rate                                 : 864 kb/s
Channel(s)                               : 2 channels
Channel layout                           : L R
Sampling rate                            : 48.0 kHz
Frame rate                               : 11.719 FPS (4096 SPF)
Bit depth                                : 16 bits
Compression mode                         : Lossless
Stream size                              : 144 MiB (17%)
Title                                    : Japanese (JPDVD, 2.0 FLAC)
Writing library                          : libFLAC 1.3.3 (UTC 2019-08-04)
Language                                 : Japanese
Default                                  : No
Forced                                   : No

Text #1
ID                                       : 4
Format                                   : ASS
Codec ID                                 : S_TEXT/ASS
Codec ID/Info                            : Advanced Sub Station Alpha
Duration                                 : 23 min 13 s
Bit rate                                 : 20.1 kb/s
Count of elements                        : 37345
Compression mode                         : Lossless
Stream size                              : 3.34 MiB (0%)
Title                                    : Signs & Songs (SSA)
Default                                  : Yes
Forced                                   : No

Text #2
ID                                       : 5
Format                                   : ASS
Codec ID                                 : S_TEXT/ASS
Codec ID/Info                            : Advanced Sub Station Alpha
Duration                                 : 23 min 13 s
Bit rate                                 : 20.2 kb/s
Count of elements                        : 37661
Compression mode                         : Lossless
Stream size                              : 3.36 MiB (0%)
Title                                    : Asakura/LostYears (SSA)
Default                                  : No
Forced                                   : No

Menu
00:00:00.000                             : en:OP
00:01:30.091                             : en:Episode
00:21:46.223                             : en:ED

Other Files in this Torrent
That Time I Got Reincarnated as a Slime - OAD 02 (Hi10 810p CR Dual Audio WEBRip KaiDubs).mkv
beta
Anime DDL+NZB mirror
Current Time: 18/06/2024 15:24



About/FAQs

Discord