File Size1.290 GB (1,385,523,572 bytes)
DownloadClickNUpload | GoFile | MdiaLoad
DownloadGG: Part1, Part2
KrakenFiles: Part1, Part2
MultiUp: Part1
  • BdUpload
  • DownAce
  • Fichier
  • FileCloud
  • Filerio
  • FilesCdn
  • IndiShare
  • Kbagi
  • Turbobit
  • UpToBox
  • Uppit
, Part2
  • BdUpload
  • DownAce
  • Fichier
  • FileCloud
  • Filerio
  • FilesCdn
  • IndiShare
  • Kbagi
  • Turbobit
  • UpToBox
  • Uppit
, Part3
  • BdUpload
  • DownAce
  • Fichier
  • FileCloud
  • Filerio
  • FilesCdn
  • IndiShare
  • Kbagi
  • Turbobit
  • UpToBox
  • Uppit
HashesCRC32: C2F90D9E, MD5: D4E8C9ED992197F561396BFD78F38745, SHA1: AF86B31DAE8C6420853745631C79FAC8840CE8EE, SHA256: F07B8C2DDF1CD167366BCED1C7B28370BCB9C875EF011164F9829FD00DE4A015, ED2K: 953A4AF9128E2BB0AB5ABD210962ABD6
Screenshots
screenshotscreenshotscreenshotscreenshotscreenshot
SubtitlesAll Attachments | Full subtitles [MTBB] [eng, ASS], Full subtitles + honorifics [MTBB] [enm, ASS], Commentary [XIG] [eng, ASS]
Additional Info
General
Unique ID                                : 39124004250803971577884359403407353112 (0x1D6F02568BEB49AD8B02DD6C62232518)
Complete name                            : [smol] Monogatari - S04E22 - Monogatari Series Second Season (BD 1080p HEVC Opus) [C2F90D9E].mkv
Format                                   : Matroska
Format version                           : Version 4
File size                                : 1.29 GiB
Duration                                 : 25 min 0 s
Overall bit rate                         : 7 386 kb/s
Movie name                               : [smol] Monogatari - 4x22 - Monogatari Series Second Season - Hitagi End - Part 5
Encoded date                             : UTC 2023-08-17 23:02:20
Writing application                      : mkvmerge v78.0 ('Running') 64-bit
Writing library                          : libebml v1.4.4 + libmatroska v1.7.1
Cover                                    : Yes
Attachments                              : cover.png / MAGRA-BOLD.TTF / LHFSCRIPTANA-REGULAR.TTF / MONTARA-GOTHIC.OTF / MONTARA-ITALIC.OTF / ARIAL_2.TTF / NEWBASK.TTF / CENTURYOLDSTYLE-LIGHT BOLD.TTF / IWATAMINCHOPROM-STR.TTF / RESWYSOKR.OTF / IWAMINPRO-LT-MADOKA.TTF / IWATA MINCHO OLD PRO-FATE B.TTF

Video
ID                                       : 1
Format                                   : HEVC
Format/Info                              : High Efficiency Video Coding
Format profile                           : Main 10@L4@Main
Codec ID                                 : V_MPEGH/ISO/HEVC
Duration                                 : 25 min 0 s
Bit rate                                 : 6 965 kb/s
Width                                    : 1 920 pixels
Height                                   : 1 080 pixels
Display aspect ratio                     : 16:9
Frame rate mode                          : Constant
Frame rate                               : 23.976 (24000/1001) FPS
Color space                              : YUV
Chroma subsampling                       : 4:2:0
Bit depth                                : 10 bits
Bits/(Pixel*Frame)                       : 0.140
Stream size                              : 1.22 GiB (94%)
Title                                    : Encoded by smolkitten
Writing library                          : x265 3.6 [smolkitten's Star of David Edition/13900k]:[Windows][GCC 13.1.0][64 bit] 10bit
Encoding settings                        : cpuid=1111039 / frame-threads=5 / numa-pools=32 / wpp / no-pmode / no-pme / no-psnr / no-ssim / log-level=2 / input-csp=1 / input-res=1920x1080 / interlace=0 / total-frames=35980 / level-idc=0 / high-tier=1 / uhd-bd=0 / ref=5 / no-allow-non-conformance / no-repeat-headers / annexb / no-aud / no-hrd / info / hash=0 / no-temporal-layers / no-open-gop / min-keyint=23 / keyint=240 / gop-lookahead=0 / bframes=12 / b-adapt=2 / b-pyramid / bframe-bias=0 / rc-lookahead=60 / lookahead-slices=0 / scenecut=40 / hist-scenecut=0 / radl=0 / no-splice / no-intra-refresh / ctu=64 / min-cu-size=8 / no-rect / no-discard-params / no-amp / max-tu-size=32 / tu-inter-depth=2 / tu-intra-depth=2 / limit-tu=0 / rdoq-level=2 / dynamic-rd=0.00 / no-ssim-rd / signhide / no-tskip / nr-intra=0 / nr-inter=0 / no-constrained-intra / no-strong-intra-smoothing / max-merge=5 / limit-refs=1 / no-limit-modes / me=3 / subme=5 / merange=57 / temporal-mvp / no-frame-dup / no-hme / weightp / weightb / no-analyze-src-pics / deblock=-2:-2 / no-sao / no-sao-non-deblock / rd=3 / selective-sao=0 / no-early-skip / no-rskip / no-fast-intra / no-tskip-fast / no-cu-lossless / b-intra / no-splitrd-skip / rdpenalty=0 / psy-rd=2.00 / psy-rdoq=2.00 / no-rd-refine / no-lossless / cbqpoffs=-2 / crqpoffs=-2 / rc=crf / crf=13.3 / qcomp=0.73 / qpstep=4 / stats-write=0 / stats-read=0 / ipratio=1.40 / pbratio=1.30 / aq-mode=3 / aq-strength=0.85 / aq-bias-strength=1.00 / no-cutree / zone-count=0 / no-strict-cbr / qg-size=32 / no-rc-grain / qpmax=69 / qpmin=0 / no-const-vbv / sar=1 / overscan=0 / videoformat=5 / range=0 / colorprim=1 / transfer=1 / colormatrix=1 / chromaloc=0 / display-window=0 / cll=0,0 / min-luma=64 / max-luma=940 / log2-max-poc-lsb=8 / vui-timing-info / vui-hrd-info / slices=1 / no-opt-qp-pps / no-opt-ref-list-length-pps / no-multi-pass-opt-rps / scenecut-bias=0.05 / hist-threshold=0.03 / no-opt-cu-delta-qp / no-aq-motion / no-hdr10 / no-hdr10-opt / no-dhdr10-opt / no-idr-recovery-sei / analysis-reuse-level=0 / analysis-save-reuse-level=0 / analysis-load-reuse-level=0 / scale-factor=0 / refine-intra=0 / refine-inter=0 / refine-mv=1 / refine-ctu-distortion=0 / no-limit-sao / ctu-info=0 / no-lowpass-dct / refine-analysis-type=0 / copy-pic=1 / max-ausize-factor=1.0 / no-dynamic-refine / no-single-sei / no-hevc-aq / no-svt / no-field / qp-adaptation-range=1.00 / scenecut-aware-qp=0 / conformance-window-offsets / right=0 / bottom=0 / decoder-max-rate=0 / no-vbv-live-multi-pass
Language                                 : Japanese
Default                                  : Yes
Forced                                   : No
Color range                              : Limited
Color primaries                          : BT.709
Transfer characteristics                 : BT.709
Matrix coefficients                      : BT.709

Audio #1
ID                                       : 2
Format                                   : Opus
Codec ID                                 : A_OPUS
Duration                                 : 25 min 0 s
Bit rate                                 : 200 kb/s
Channel(s)                               : 2 channels
Channel layout                           : L R
Sampling rate                            : 48.0 kHz
Frame rate                               : 50.000 FPS (960 SPF)
Compression mode                         : Lossy
Stream size                              : 35.8 MiB (3%)
Title                                    : Japanese 2.0 (Main)
Writing library                          : opusenc from opus-tools 0.2-3-gf5f571b
Language                                 : Japanese
Default                                  : Yes
Forced                                   : No
ENCODER_OPTIONS                          : --bitrate 192

Audio #2
ID                                       : 3
Format                                   : Opus
Codec ID                                 : A_OPUS
Duration                                 : 25 min 0 s
Bit rate                                 : 179 kb/s
Channel(s)                               : 2 channels
Channel layout                           : L R
Sampling rate                            : 48.0 kHz
Frame rate                               : 50.000 FPS (960 SPF)
Compression mode                         : Lossy
Stream size                              : 32.0 MiB (2%)
Title                                    : Japanese 2.0 (Commentary)
Writing library                          : opusenc from opus-tools 0.2-3-gf5f571b
Language                                 : Japanese
Default                                  : No
Forced                                   : No
ENCODER_OPTIONS                          : --bitrate 192

Text #1
ID                                       : 4
Format                                   : ASS
Codec ID                                 : S_TEXT/ASS
Codec ID/Info                            : Advanced Sub Station Alpha
Duration                                 : 24 min 58 s
Bit rate                                 : 1 641 b/s
Count of elements                        : 2765
Compression mode                         : Lossless
Stream size                              : 300 KiB (0%)
Title                                    : Full subtitles [MTBB]
Language                                 : English
Default                                  : Yes
Forced                                   : No

Text #2
ID                                       : 5
Format                                   : ASS
Codec ID                                 : S_TEXT/ASS
Codec ID/Info                            : Advanced Sub Station Alpha
Duration                                 : 24 min 58 s
Bit rate                                 : 1 578 b/s
Count of elements                        : 2765
Compression mode                         : Lossless
Stream size                              : 289 KiB (0%)
Title                                    : Full subtitles + honorifics [MTBB]
Language                                 : enm
Default                                  : No
Forced                                   : No

Text #3
ID                                       : 6
Format                                   : ASS
Codec ID                                 : S_TEXT/ASS
Codec ID/Info                            : Advanced Sub Station Alpha
Duration                                 : 24 min 57 s
Bit rate                                 : 280 b/s
Count of elements                        : 604
Compression mode                         : Lossless
Stream size                              : 51.2 KiB (0%)
Title                                    : Commentary [XIG]
Language                                 : English
Default                                  : No
Forced                                   : No

Menu
00:00:00.000                             : ja:Prologue
00:05:54.020                             : ja:OP
00:07:23.985                             : ja:Part A
00:07:26.988                             : ja:Part B
00:09:04.711                             : ja:Part C
00:14:20.026                             : ja:Part D
00:19:30.002                             : ja:Part E
00:22:40.067                             : ja:ED
00:24:10.032                             : ja:Preview

Other Files in this Torrent
[smol] Monogatari - S04E22 - Monogatari Series Second Season (BD 1080p HEVC Opus) [C2F90D9E].mkv
beta
Anime DDL+NZB mirror
Current Time: 26/05/2024 00:32



About/FAQs

Discord