File Size1.792 GB (1,923,837,455 bytes)
DownloadClickNUpload | GoFile | MdiaLoad
DownloadGG: Part1, Part2
KrakenFiles: Part1, Part2
MultiUp: Part1
  • BdUpload
  • DownAce
  • Fichier
  • FileCloud
  • Filerio
  • FilesCdn
  • IndiShare
  • Kbagi
  • Turbobit
  • UpToBox
  • Uppit
, Part2
  • BdUpload
  • DownAce
  • Fichier
  • FileCloud
  • Filerio
  • FilesCdn
  • IndiShare
  • Kbagi
  • Turbobit
  • UpToBox
  • Uppit
, Part3
  • BdUpload
  • DownAce
  • Fichier
  • FileCloud
  • Filerio
  • FilesCdn
  • IndiShare
  • Kbagi
  • Turbobit
  • UpToBox
  • Uppit
, Part4
  • BdUpload
  • DownAce
  • Fichier
  • FileCloud
  • Filerio
  • FilesCdn
  • IndiShare
  • Kbagi
  • Turbobit
  • UpToBox
  • Uppit
HashesCRC32: F9216424, MD5: F1F031AAAD577559CA967FEE0BCAECBA, SHA1: 5E5CD27C128A6A50D7AC089CA90C0E4B219929CF, SHA256: 4E2F16CCD2788F2B117CB97186F7E1064130290272CFA1F9A47537ACD58BFE2F, ED2K: C2088BEEDAC4B9BCEA9BBD8E6FCD7612
Screenshots
screenshotscreenshotscreenshotscreenshotscreenshot
SubtitlesAll Attachments | Full subtitles [MTBB] [eng, ASS], Full subtitles + honorifics [MTBB] [enm, ASS], Commentary [XIG] [eng, ASS]
Additional Info
General
Unique ID                                : 309805645449002347516083405833858226073 (0xE912659E956BDF53CDAB571F8DC09799)
Complete name                            : [smol] Monogatari - S04E03 - Monogatari Series Second Season (BD 1080p HEVC Opus) [F9216424].mkv
Format                                   : Matroska
Format version                           : Version 4
File size                                : 1.79 GiB
Duration                                 : 26 min 40 s
Overall bit rate                         : 9 618 kb/s
Movie name                               : [smol] Monogatari - 4x03 - Monogatari Series Second Season - Tsubasa Tiger - Part 3
Encoded date                             : UTC 2023-08-17 22:15:59
Writing application                      : mkvmerge v78.0 ('Running') 64-bit
Writing library                          : libebml v1.4.4 + libmatroska v1.7.1
Cover                                    : Yes
Attachments                              : cover.png / IWATA MINCHO OLD PRO-FATE B.TTF / MAGRA-BOLD.TTF / CENTURYOLDSTYLE-LIGHT.OTF / RESWYSOKR.OTF / EUPHORIG.TTF / AMIENNE.TTF / LHFSCRIPTANA-REGULAR.TTF / MONTARA-ITALIC.OTF / YOUNG ZAPHOD.TTF / MONTARA-GOTHIC.OTF / IWAMINPRO-LT-MADOKA.TTF

Video
ID                                       : 1
Format                                   : HEVC
Format/Info                              : High Efficiency Video Coding
Format profile                           : Main 10@L4@Main
Codec ID                                 : V_MPEGH/ISO/HEVC
Duration                                 : 26 min 40 s
Bit rate                                 : 9 206 kb/s
Width                                    : 1 920 pixels
Height                                   : 1 080 pixels
Display aspect ratio                     : 16:9
Frame rate mode                          : Constant
Frame rate                               : 23.976 (24000/1001) FPS
Color space                              : YUV
Chroma subsampling                       : 4:2:0
Bit depth                                : 10 bits
Bits/(Pixel*Frame)                       : 0.185
Stream size                              : 1.72 GiB (96%)
Title                                    : Encoded by smolkitten
Writing library                          : x265 3.6 [smolkitten's Star of David Edition/13900k]:[Windows][GCC 13.1.0][64 bit] 10bit
Encoding settings                        : cpuid=1111039 / frame-threads=5 / numa-pools=32 / wpp / no-pmode / no-pme / no-psnr / no-ssim / log-level=2 / input-csp=1 / input-res=1920x1080 / interlace=0 / total-frames=38368 / level-idc=0 / high-tier=1 / uhd-bd=0 / ref=5 / no-allow-non-conformance / no-repeat-headers / annexb / no-aud / no-hrd / info / hash=0 / no-temporal-layers / no-open-gop / min-keyint=23 / keyint=240 / gop-lookahead=0 / bframes=12 / b-adapt=2 / b-pyramid / bframe-bias=0 / rc-lookahead=60 / lookahead-slices=0 / scenecut=40 / hist-scenecut=0 / radl=0 / no-splice / no-intra-refresh / ctu=64 / min-cu-size=8 / no-rect / no-discard-params / no-amp / max-tu-size=32 / tu-inter-depth=2 / tu-intra-depth=2 / limit-tu=0 / rdoq-level=2 / dynamic-rd=0.00 / no-ssim-rd / signhide / no-tskip / nr-intra=0 / nr-inter=0 / no-constrained-intra / no-strong-intra-smoothing / max-merge=5 / limit-refs=1 / no-limit-modes / me=3 / subme=5 / merange=57 / temporal-mvp / no-frame-dup / no-hme / weightp / weightb / no-analyze-src-pics / deblock=-2:-2 / no-sao / no-sao-non-deblock / rd=3 / selective-sao=0 / no-early-skip / no-rskip / no-fast-intra / no-tskip-fast / no-cu-lossless / b-intra / no-splitrd-skip / rdpenalty=0 / psy-rd=2.00 / psy-rdoq=2.00 / no-rd-refine / no-lossless / cbqpoffs=-2 / crqpoffs=-2 / rc=crf / crf=13.3 / qcomp=0.73 / qpstep=4 / stats-write=0 / stats-read=0 / ipratio=1.40 / pbratio=1.30 / aq-mode=3 / aq-strength=0.85 / aq-bias-strength=1.00 / no-cutree / zone-count=0 / no-strict-cbr / qg-size=32 / no-rc-grain / qpmax=69 / qpmin=0 / no-const-vbv / sar=1 / overscan=0 / videoformat=5 / range=0 / colorprim=1 / transfer=1 / colormatrix=1 / chromaloc=0 / display-window=0 / cll=0,0 / min-luma=64 / max-luma=940 / log2-max-poc-lsb=8 / vui-timing-info / vui-hrd-info / slices=1 / no-opt-qp-pps / no-opt-ref-list-length-pps / no-multi-pass-opt-rps / scenecut-bias=0.05 / hist-threshold=0.03 / no-opt-cu-delta-qp / no-aq-motion / no-hdr10 / no-hdr10-opt / no-dhdr10-opt / no-idr-recovery-sei / analysis-reuse-level=0 / analysis-save-reuse-level=0 / analysis-load-reuse-level=0 / scale-factor=0 / refine-intra=0 / refine-inter=0 / refine-mv=1 / refine-ctu-distortion=0 / no-limit-sao / ctu-info=0 / no-lowpass-dct / refine-analysis-type=0 / copy-pic=1 / max-ausize-factor=1.0 / no-dynamic-refine / no-single-sei / no-hevc-aq / no-svt / no-field / qp-adaptation-range=1.00 / scenecut-aware-qp=0 / conformance-window-offsets / right=0 / bottom=0 / decoder-max-rate=0 / no-vbv-live-multi-pass
Language                                 : Japanese
Default                                  : Yes
Forced                                   : No
Color range                              : Limited
Color primaries                          : BT.709
Transfer characteristics                 : BT.709
Matrix coefficients                      : BT.709

Audio #1
ID                                       : 2
Format                                   : Opus
Codec ID                                 : A_OPUS
Duration                                 : 26 min 40 s
Bit rate                                 : 193 kb/s
Channel(s)                               : 2 channels
Channel layout                           : L R
Sampling rate                            : 48.0 kHz
Frame rate                               : 50.000 FPS (960 SPF)
Compression mode                         : Lossy
Stream size                              : 36.8 MiB (2%)
Title                                    : Japanese 2.0 (Main)
Writing library                          : opusenc from opus-tools 0.2-3-gf5f571b
Language                                 : Japanese
Default                                  : Yes
Forced                                   : No
ENCODER_OPTIONS                          : --bitrate 192

Audio #2
ID                                       : 3
Format                                   : Opus
Codec ID                                 : A_OPUS
Duration                                 : 26 min 40 s
Bit rate                                 : 178 kb/s
Channel(s)                               : 2 channels
Channel layout                           : L R
Sampling rate                            : 48.0 kHz
Frame rate                               : 50.000 FPS (960 SPF)
Compression mode                         : Lossy
Stream size                              : 34.0 MiB (2%)
Title                                    : Japanese 2.0 (Commentary)
Writing library                          : opusenc from opus-tools 0.2-3-gf5f571b
Language                                 : Japanese
Default                                  : No
Forced                                   : No
ENCODER_OPTIONS                          : --bitrate 192

Text #1
ID                                       : 4
Format                                   : ASS
Codec ID                                 : S_TEXT/ASS
Codec ID/Info                            : Advanced Sub Station Alpha
Duration                                 : 26 min 37 s
Bit rate                                 : 2 675 b/s
Count of elements                        : 5472
Compression mode                         : Lossless
Stream size                              : 522 KiB (0%)
Title                                    : Full subtitles [MTBB]
Language                                 : English
Default                                  : Yes
Forced                                   : No

Text #2
ID                                       : 5
Format                                   : ASS
Codec ID                                 : S_TEXT/ASS
Codec ID/Info                            : Advanced Sub Station Alpha
Duration                                 : 26 min 37 s
Bit rate                                 : 2 676 b/s
Count of elements                        : 5472
Compression mode                         : Lossless
Stream size                              : 522 KiB (0%)
Title                                    : Full subtitles + honorifics [MTBB]
Language                                 : enm
Default                                  : No
Forced                                   : No

Text #3
ID                                       : 6
Format                                   : ASS
Codec ID                                 : S_TEXT/ASS
Codec ID/Info                            : Advanced Sub Station Alpha
Duration                                 : 26 min 35 s
Bit rate                                 : 278 b/s
Count of elements                        : 645
Compression mode                         : Lossless
Stream size                              : 54.2 KiB (0%)
Title                                    : Commentary [XIG]
Language                                 : English
Default                                  : No
Forced                                   : No

Menu
00:00:00.000                             : ja:Prologue
00:03:03.975                             : ja:OP
00:04:34.065                             : ja:Part A
00:04:37.068                             : ja:Part B
00:07:15.894                             : ja:Part C
00:09:43.082                             : ja:Part D
00:13:50.038                             : ja:Part E
00:16:39.498                             : ja:Part F
00:24:10.115                             : ja:ED
00:25:40.080                             : ja:Preview

Other Files in this Torrent
[smol] Monogatari - S04E03 - Monogatari Series Second Season (BD 1080p HEVC Opus) [F9216424].mkv
beta
Anime DDL+NZB mirror
Current Time: 18/06/2024 15:14



About/FAQs

Discord