File Size194.7 MB (204,193,126 bytes)
DownloadClickNUpload | DownloadGG | GoFile | KrakenFiles | MdiaLoad | MultiUp
  • BdUpload
  • DownAce
  • Fichier
  • FileCloud
  • Filerio
  • FilesCdn
  • IndiShare
  • Kbagi
  • Turbobit
  • UpToBox
  • Uppit
HashesCRC32: BFFD308C, MD5: BC4F7FD0081AEBBC8F83E58C56C0E5EA, SHA1: F563011D5DFD192E3ABF115B23F9FF744EC57946, SHA256: D64AD42172D0437B6C10EE7E376E33546599CAD1DC9761FF7DCC65258E871A77, ED2K: AA01829EA6821EDBAF05B397C675EECA
Screenshots
screenshotscreenshot
SubtitlesAll Attachments | Signs/Songs (Main) [MTBB] [eng, ASS], Signs/Songs (Duet) [OZR] [eng, ASS]
Additional Info
General
Unique ID                                : 187940826719975120586632518492405552870 (0x8D64162B1BDF73877A689B87829AD6E6)
Complete name                            : [smol] Monogatari - S04 - Monogatari Series Second Season - NCOP 04 - Kogarashi Sentiment (BD 1080p HEVC Opus) [Dual Audio] [BFFD308C].mkv
Format                                   : Matroska
Format version                           : Version 4
File size                                : 195 MiB
Duration                                 : 1 min 31 s
Overall bit rate                         : 17.8 Mb/s
Movie name                               : [smol] Monogatari - S04 - Monogatari Series Second Season - NCOP 04 - Saito Chiwa & Miki Shinichiro - Kogarashi Sentiment
Encoded date                             : UTC 2023-08-17 23:59:43
Writing application                      : mkvmerge v78.0 ('Running') 64-bit
Writing library                          : libebml v1.4.4 + libmatroska v1.7.1
Attachments                              : RESWYSOKR.OTF / ARIAL.TTF

Video
ID                                       : 1
Format                                   : HEVC
Format/Info                              : High Efficiency Video Coding
Format profile                           : Main 10@L4@Main
Codec ID                                 : V_MPEGH/ISO/HEVC
Duration                                 : 1 min 31 s
Bit rate                                 : 17.3 Mb/s
Width                                    : 1 920 pixels
Height                                   : 1 080 pixels
Display aspect ratio                     : 16:9
Frame rate mode                          : Constant
Frame rate                               : 23.976 (24000/1001) FPS
Color space                              : YUV
Chroma subsampling                       : 4:2:0
Bit depth                                : 10 bits
Bits/(Pixel*Frame)                       : 0.348
Stream size                              : 189 MiB (97%)
Title                                    : Encoded by smolkitten
Writing library                          : x265 3.6 [smolkitten's Star of David Edition/13900k]:[Windows][GCC 13.1.0][64 bit] 10bit
Encoding settings                        : cpuid=1111039 / frame-threads=5 / numa-pools=32 / wpp / no-pmode / no-pme / no-psnr / no-ssim / log-level=2 / input-csp=1 / input-res=1920x1080 / interlace=0 / total-frames=2196 / level-idc=0 / high-tier=1 / uhd-bd=0 / ref=5 / no-allow-non-conformance / no-repeat-headers / annexb / no-aud / no-hrd / info / hash=0 / no-temporal-layers / no-open-gop / min-keyint=23 / keyint=240 / gop-lookahead=0 / bframes=12 / b-adapt=2 / b-pyramid / bframe-bias=0 / rc-lookahead=60 / lookahead-slices=0 / scenecut=40 / hist-scenecut=0 / radl=0 / no-splice / no-intra-refresh / ctu=64 / min-cu-size=8 / no-rect / no-discard-params / no-amp / max-tu-size=32 / tu-inter-depth=2 / tu-intra-depth=2 / limit-tu=0 / rdoq-level=2 / dynamic-rd=0.00 / no-ssim-rd / signhide / no-tskip / nr-intra=0 / nr-inter=0 / no-constrained-intra / no-strong-intra-smoothing / max-merge=5 / limit-refs=1 / no-limit-modes / me=3 / subme=5 / merange=57 / temporal-mvp / no-frame-dup / no-hme / weightp / weightb / no-analyze-src-pics / deblock=-2:-2 / no-sao / no-sao-non-deblock / rd=3 / selective-sao=0 / no-early-skip / no-rskip / no-fast-intra / no-tskip-fast / no-cu-lossless / b-intra / no-splitrd-skip / rdpenalty=0 / psy-rd=2.00 / psy-rdoq=2.00 / no-rd-refine / no-lossless / cbqpoffs=-2 / crqpoffs=-2 / rc=crf / crf=13.3 / qcomp=0.73 / qpstep=4 / stats-write=0 / stats-read=0 / ipratio=1.40 / pbratio=1.30 / aq-mode=3 / aq-strength=0.85 / aq-bias-strength=1.00 / no-cutree / zone-count=0 / no-strict-cbr / qg-size=32 / no-rc-grain / qpmax=69 / qpmin=0 / no-const-vbv / sar=1 / overscan=0 / videoformat=5 / range=0 / colorprim=1 / transfer=1 / colormatrix=1 / chromaloc=0 / display-window=0 / cll=0,0 / min-luma=64 / max-luma=940 / log2-max-poc-lsb=8 / vui-timing-info / vui-hrd-info / slices=1 / no-opt-qp-pps / no-opt-ref-list-length-pps / no-multi-pass-opt-rps / scenecut-bias=0.05 / hist-threshold=0.03 / no-opt-cu-delta-qp / no-aq-motion / no-hdr10 / no-hdr10-opt / no-dhdr10-opt / no-idr-recovery-sei / analysis-reuse-level=0 / analysis-save-reuse-level=0 / analysis-load-reuse-level=0 / scale-factor=0 / refine-intra=0 / refine-inter=0 / refine-mv=1 / refine-ctu-distortion=0 / no-limit-sao / ctu-info=0 / no-lowpass-dct / refine-analysis-type=0 / copy-pic=1 / max-ausize-factor=1.0 / no-dynamic-refine / no-single-sei / no-hevc-aq / no-svt / no-field / qp-adaptation-range=1.00 / scenecut-aware-qp=0 / conformance-window-offsets / right=0 / bottom=0 / decoder-max-rate=0 / no-vbv-live-multi-pass
Language                                 : Japanese
Default                                  : Yes
Forced                                   : No
Color range                              : Limited
Color primaries                          : BT.709
Transfer characteristics                 : BT.709
Matrix coefficients                      : BT.709

Audio #1
ID                                       : 2
Format                                   : Opus
Codec ID                                 : A_OPUS
Duration                                 : 1 min 31 s
Bit rate                                 : 200 kb/s
Channel(s)                               : 2 channels
Channel layout                           : L R
Sampling rate                            : 48.0 kHz
Frame rate                               : 50.002 FPS (960 SPF)
Compression mode                         : Lossy
Stream size                              : 2.19 MiB (1%)
Title                                    : Japanese 2.0 (Main)
Writing library                          : opusenc from opus-tools 0.2-3-gf5f571b
Language                                 : Japanese
Default                                  : Yes
Forced                                   : No
ENCODER_OPTIONS                          : --bitrate 192

Audio #2
ID                                       : 3
Format                                   : Opus
Codec ID                                 : A_OPUS
Duration                                 : 1 min 31 s
Bit rate                                 : 203 kb/s
Channel(s)                               : 2 channels
Channel layout                           : L R
Sampling rate                            : 48.0 kHz
Frame rate                               : 50.002 FPS (960 SPF)
Compression mode                         : Lossy
Stream size                              : 2.21 MiB (1%)
Title                                    : Japanese 2.0 (Duet)
Writing library                          : opusenc from opus-tools 0.2-3-gf5f571b
Language                                 : Japanese
Default                                  : No
Forced                                   : No
ENCODER_OPTIONS                          : --bitrate 192

Text #1
ID                                       : 4
Format                                   : ASS
Codec ID                                 : S_TEXT/ASS
Codec ID/Info                            : Advanced Sub Station Alpha
Duration                                 : 1 min 14 s
Bit rate                                 : 3 904 b/s
Count of elements                        : 228
Compression mode                         : Lossless
Stream size                              : 35.4 KiB (0%)
Title                                    : Signs/Songs (Main) [MTBB]
Language                                 : English
Default                                  : Yes
Forced                                   : No

Text #2
ID                                       : 5
Format                                   : ASS
Codec ID                                 : S_TEXT/ASS
Codec ID/Info                            : Advanced Sub Station Alpha
Duration                                 : 1 min 14 s
Bit rate                                 : 3 810 b/s
Count of elements                        : 223
Compression mode                         : Lossless
Stream size                              : 34.5 KiB (0%)
Title                                    : Signs/Songs (Duet) [OZR]
Language                                 : English
Default                                  : No
Forced                                   : No

Other Files in this Torrent
Extras/[smol] Monogatari - S04 - Monogatari Series Second Season - NCOP 04 - Kogarashi Sentiment (BD 1080p HEVC Opus) [Dual Audio] [BFFD308C].mkv
beta
Anime DDL+NZB mirror
Current Time: 13/06/2024 06:51



About/FAQs

Discord