[Sajamba] Koyomimonogatari - 12 (BD 1920x1080 x264 FLAC).mkv


File Size582.2 MB (610,473,507 bytes)
DownloadGo4Up | Jheberg | MultiUp | OpenLoad | UsersCloud
Sendspace: Part1, Part2
SolidFiles: Part1, Part2
HashesCRC32: D44A646F, MD5: 0D181D6611AA8CFCB4ABF71287465AA9, SHA1: 123EA53E55E025637113B65BB3964BF2DF06E5A8, SHA256: E14FE375D69BCD97B7C75BD74D7E44D897235F7B87E559DA4100231B50BFD140, ED2K: C482B29C43BE2174F3FBFD06C2CA5B33
Screenshots
screenshotscreenshotscreenshotscreenshotscreenshot
SubtitlesAll Attachments | und [ASS]
Additional Info
General
Unique ID                                : 187505219429023444198348183658331787660 (0x8D1031121E7D7A898E184F8BDB4E518C)
Complete name                            : [Sajamba] Koyomimonogatari - 12  (BD 1920x1080 x264 FLAC).mkv
Format                                   : Matroska
Format version                           : Version 4 / Version 2
File size                                : 582 MiB
Duration                                 : 12mn 14s
Overall bit rate mode                    : Variable
Overall bit rate                         : 6 653 Kbps
Encoded date                             : UTC 2016-07-30 17:02:08
Writing application                      : mkvmerge v9.2.0 ('Photograph') 64bit
Writing library                          : libebml v1.3.3 + libmatroska v1.4.4
Attachments                              : arialbd_0.ttf / Cabin-BoldItalic-TTF_0.ttf / Cabin-Bold-TTF_0.ttf / Cabin-Italic-TTF_0.ttf / calibri_0.ttf / calibril_0.ttf / ufonts.com_levenim-mt_0.ttf / ufonts.com_levenim-mt-bold_0.ttf

Video
ID                                       : 2
Format                                   : AVC
Format/Info                              : Advanced Video Codec
Format profile                           : High 10@L5
Format settings, CABAC                   : Yes
Format settings, ReFrames                : 4 frames
Codec ID                                 : V_MPEG4/ISO/AVC
Duration                                 : 12mn 14s
Bit rate                                 : 5 261 Kbps
Width                                    : 1 920 pixels
Height                                   : 1 080 pixels
Display aspect ratio                     : 16:9
Frame rate mode                          : Constant
Frame rate                               : 23.976 (24000/1001) fps
Color space                              : YUV
Chroma subsampling                       : 4:2:0
Bit depth                                : 10 bits
Scan type                                : Progressive
Bits/(Pixel*Frame)                       : 0.106
Stream size                              : 460 MiB (79%)
Title                                    : BDRip by Vladdrako
Writing library                          : x264 core 148 (DJATOM's build)
Encoding settings                        : cabac=1 / ref=4 / deblock=1:1:-1 / analyse=0x3:0x113 / me=umh / subme=9 / psy=1 / fade_compensate=0.00 / psy_rd=1.00:0.00 / mixed_ref=1 / me_range=32 / chroma_me=1 / trellis=2 / 8x8dct=1 / cqm=0 / deadzone=21,11 / fast_pskip=1 / chroma_qp_offset=-2 / threads=12 / lookahead_threads=2 / sliced_threads=0 / nr=0 / decimate=1 / interlaced=0 / bluray_compat=0 / constrained_intra=0 / bframes=9 / b_pyramid=2 / b_adapt=2 / b_bias=0 / direct=1 / weightb=1 / open_gop=0 / weightp=2 / keyint=250 / keyint_min=23 / scenecut=40 / intra_refresh=0 / rc=crf / mbtree=0 / crf=16.0000 / qcomp=0.72 / qpmin=0 / qpmax=81 / qpstep=4 / ip_ratio=1.40 / pb_ratio=1.30 / aq=1:0.85
Language                                 : Japanese
Default                                  : Yes
Forced                                   : No
Color range                              : Limited
Color primaries                          : BT.709
Transfer characteristics                 : BT.709
Matrix coefficients                      : BT.709

Audio
ID                                       : 3
Format                                   : FLAC
Format/Info                              : Free Lossless Audio Codec
Codec ID                                 : A_FLAC
Duration                                 : 12mn 14s
Bit rate mode                            : Variable
Bit rate                                 : 1 357 Kbps
Channel(s)                               : 2 channels
Channel positions                        : Front: L R
Sampling rate                            : 48.0 KHz
Frame rate                               : 11.720 fps (4096 spf)
Bit depth                                : 24 bits
Stream size                              : 119 MiB (20%)
Title                                    : LPCM->FLAC
Writing library                          : libFLAC 1.3.1 (UTC 2014-11-25)
Language                                 : Japanese
Default                                  : Yes
Forced                                   : No

Text
ID                                       : 1
Format                                   : ASS
Codec ID                                 : S_TEXT/ASS
Codec ID/Info                            : Advanced Sub Station Alpha
Duration                                 : 12mn 8s
Bit rate                                 : 186 bps
Count of elements                        : 258
Compression mode                         : Lossless
Stream size                              : 16.6 KiB (0%)
Default                                  : Yes
Forced                                   : No

Menu
00:00:00.000                             : :Part A
00:00:05.005                             : :Part B
00:00:08.008                             : :Part C
00:00:14.514                             : :Part D
00:01:37.472                             : :Part E
00:02:48.418                             : :Part F
00:09:23.062                             : :ED
00:10:52.985                             : :Part G

Other Files in this Torrent
[Sajamba] Koyomimonogatari - 12 (BD 1920x1080 x264 FLAC).mkv
beta
Anime DDL+NZB mirror
Current Time: 07/12/2022 04:03



About/FAQs

Discord