[Sajamba] Koyomimonogatari - 01 (BD 1920x1080 x264 FLAC).mkv


File Size589.6 MB (618,238,021 bytes)
DownloadGo4Up | Jheberg | MultiUp | OpenLoad | UsersCloud
Sendspace: Part1, Part2
SolidFiles: Part1, Part2
HashesCRC32: 499CDA84, MD5: 46DE6E33DBEA39421F21E59653E1B4B1, SHA1: 8D2CB44754DB60ADC04E5EC4891A6C0E749D502D, SHA256: DF798C471DB4374A720046E678AC191BDBD9D3CD75AB20CB980666505877257C, ED2K: 266FA038924F0748B1B0B6A30804873B
Screenshots
screenshotscreenshotscreenshotscreenshotscreenshot
SubtitlesAll Attachments | und [ASS]
Additional Info
General
Unique ID                                : 200762725206957946788990903834874408580 (0x97097E92432AA4EAA25539FA6452EE84)
Complete name                            : [Sajamba] Koyomimonogatari - 01  (BD 1920x1080 x264 FLAC).mkv
Format                                   : Matroska
Format version                           : Version 4 / Version 2
File size                                : 590 MiB
Duration                                 : 13mn 44s
Overall bit rate mode                    : Variable
Overall bit rate                         : 5 998 Kbps
Encoded date                             : UTC 2016-07-25 20:31:00
Writing application                      : mkvmerge v9.2.0 ('Photograph') 64bit
Writing library                          : libebml v1.3.3 + libmatroska v1.4.4
Attachments                              : Arkona-Regular-Regular_0.ttf / Cabin-BoldItalic-TTF_0.ttf / Cabin-Bold-TTF_0.ttf / Cabin-Italic-TTF_0.ttf / calibril_0.ttf / ufonts.com_levenim-mt_0.ttf / ufonts.com_levenim-mt-bold_0.ttf

Video
ID                                       : 2
Format                                   : AVC
Format/Info                              : Advanced Video Codec
Format profile                           : High 10@L5
Format settings, CABAC                   : Yes
Format settings, ReFrames                : 4 frames
Codec ID                                 : V_MPEG4/ISO/AVC
Duration                                 : 13mn 44s
Bit rate                                 : 4 635 Kbps
Width                                    : 1 920 pixels
Height                                   : 1 080 pixels
Display aspect ratio                     : 16:9
Frame rate mode                          : Constant
Frame rate                               : 23.976 (24000/1001) fps
Color space                              : YUV
Chroma subsampling                       : 4:2:0
Bit depth                                : 10 bits
Scan type                                : Progressive
Bits/(Pixel*Frame)                       : 0.093
Stream size                              : 456 MiB (77%)
Title                                    : BDRip by Vladdrako
Writing library                          : x264 core 148 (DJATOM's build)
Encoding settings                        : cabac=1 / ref=4 / deblock=1:1:-1 / analyse=0x3:0x113 / me=umh / subme=9 / psy=1 / fade_compensate=0.00 / psy_rd=1.00:0.00 / mixed_ref=1 / me_range=32 / chroma_me=1 / trellis=2 / 8x8dct=1 / cqm=0 / deadzone=21,11 / fast_pskip=1 / chroma_qp_offset=-2 / threads=12 / lookahead_threads=2 / sliced_threads=0 / nr=0 / decimate=1 / interlaced=0 / bluray_compat=0 / constrained_intra=0 / bframes=9 / b_pyramid=2 / b_adapt=2 / b_bias=0 / direct=1 / weightb=1 / open_gop=0 / weightp=2 / keyint=250 / keyint_min=23 / scenecut=40 / intra_refresh=0 / rc=crf / mbtree=0 / crf=16.0000 / qcomp=0.72 / qpmin=0 / qpmax=81 / qpstep=4 / ip_ratio=1.40 / pb_ratio=1.30 / aq=1:0.85
Language                                 : Japanese
Default                                  : Yes
Forced                                   : No
Color range                              : Limited
Color primaries                          : BT.709
Transfer characteristics                 : BT.709
Matrix coefficients                      : BT.709

Audio
ID                                       : 3
Format                                   : FLAC
Format/Info                              : Free Lossless Audio Codec
Codec ID                                 : A_FLAC
Duration                                 : 13mn 44s
Bit rate mode                            : Variable
Bit rate                                 : 1 348 Kbps
Channel(s)                               : 2 channels
Channel positions                        : Front: L R
Sampling rate                            : 48.0 KHz
Frame rate                               : 11.719 fps (4096 spf)
Bit depth                                : 24 bits
Stream size                              : 132 MiB (22%)
Title                                    : LPCM->FLAC
Writing library                          : libFLAC 1.3.1 (UTC 2014-11-25)
Language                                 : Japanese
Default                                  : Yes
Forced                                   : No

Text
ID                                       : 1
Format                                   : ASS
Codec ID                                 : S_TEXT/ASS
Codec ID/Info                            : Advanced Sub Station Alpha
Duration                                 : 13mn 24s
Bit rate                                 : 148 bps
Count of elements                        : 223
Compression mode                         : Lossless
Stream size                              : 14.5 KiB (0%)
Default                                  : Yes
Forced                                   : No

Menu
00:00:00.000                             : :OP
00:01:31.091                             : :Part A
00:01:35.095                             : :Part B
00:01:38.098                             : :Part C
00:02:40.201                             : :Part D
00:04:24.931                             : :Part E
00:07:45.798                             : :Part F
00:10:45.311                             : :Part G
00:12:13.065                             : :ED

Other Files in this Torrent
[Sajamba] Koyomimonogatari - 01 (BD 1920x1080 x264 FLAC).mkv
beta
Anime DDL+NZB mirror
Current Time: 07/12/2022 04:14



About/FAQs

Discord