[Sajamba] Koyomimonogatari - 03 (BD 1920x1080 x264 FLAC).mkv


File Size595.7 MB (624,670,331 bytes)
DownloadGo4Up | Jheberg | MultiUp
  • ClickNupload
  • Fichier
  • Filerio
  • Free
  • Fufox
  • HugeFiles
  • Mightyupload
  • ToutBox
  • Turbobit
  • UpToBox
  • Uplea
  • UploadBaz
  • Uploadable
  • Uploaded
  • Uppit
  • Userscloud
| OpenLoad | UsersCloud
Sendspace: Part1, Part2
SolidFiles: Part1, Part2
HashesCRC32: 96BC65A8, MD5: B8E95EDBC770C74B2118395EEC344392, SHA1: 18C5B93868509AEDD7D98A33FD86EB3EE72DC096, SHA256: 670DC1DBD919632BB23647CF0040523B2FDA74828C62B40BCF8CEAF665362E37, ED2K: A45EE18198183CCE121CF9939040219D
Screenshots
screenshotscreenshotscreenshotscreenshotscreenshot
SubtitlesAll Attachments | und [ASS]
Additional Info
General
Unique ID                                : 186063107159665819836347658735080016547 (0x8BFA7372467C008998F71996FCF18AA3)
Complete name                            : [Sajamba] Koyomimonogatari - 03  (BD 1920x1080 x264 FLAC).mkv
Format                                   : Matroska
Format version                           : Version 4 / Version 2
File size                                : 596 MiB
Duration                                 : 11mn 56s
Overall bit rate mode                    : Variable
Overall bit rate                         : 6 973 Kbps
Encoded date                             : UTC 2016-07-25 20:34:59
Writing application                      : mkvmerge v9.2.0 ('Photograph') 64bit
Writing library                          : libebml v1.3.3 + libmatroska v1.4.4
Attachments                              : Brianne_s_hand_0.ttf / Cabin-BoldItalic-TTF_0.ttf / Cabin-Bold-TTF_0.ttf / Cabin-Italic-TTF_0.ttf / calibri_0.ttf / calibril_0.ttf / gnyrwn971_0.ttf / ufonts.com_levenim-mt_0.ttf / ufonts.com_levenim-mt-bold_0.ttf

Video
ID                                       : 2
Format                                   : AVC
Format/Info                              : Advanced Video Codec
Format profile                           : High 10@L5
Format settings, CABAC                   : Yes
Format settings, ReFrames                : 4 frames
Codec ID                                 : V_MPEG4/ISO/AVC
Duration                                 : 11mn 56s
Bit rate                                 : 5 506 Kbps
Width                                    : 1 920 pixels
Height                                   : 1 080 pixels
Display aspect ratio                     : 16:9
Frame rate mode                          : Constant
Frame rate                               : 23.976 (24000/1001) fps
Color space                              : YUV
Chroma subsampling                       : 4:2:0
Bit depth                                : 10 bits
Scan type                                : Progressive
Bits/(Pixel*Frame)                       : 0.111
Stream size                              : 470 MiB (79%)
Title                                    : BDRip by Vladdrako
Writing library                          : x264 core 148 (DJATOM's build)
Encoding settings                        : cabac=1 / ref=4 / deblock=1:1:-1 / analyse=0x3:0x113 / me=umh / subme=9 / psy=1 / fade_compensate=0.00 / psy_rd=1.00:0.00 / mixed_ref=1 / me_range=32 / chroma_me=1 / trellis=2 / 8x8dct=1 / cqm=0 / deadzone=21,11 / fast_pskip=1 / chroma_qp_offset=-2 / threads=12 / lookahead_threads=2 / sliced_threads=0 / nr=0 / decimate=1 / interlaced=0 / bluray_compat=0 / constrained_intra=0 / bframes=9 / b_pyramid=2 / b_adapt=2 / b_bias=0 / direct=1 / weightb=1 / open_gop=0 / weightp=2 / keyint=250 / keyint_min=23 / scenecut=40 / intra_refresh=0 / rc=crf / mbtree=0 / crf=16.0000 / qcomp=0.72 / qpmin=0 / qpmax=81 / qpstep=4 / ip_ratio=1.40 / pb_ratio=1.30 / aq=1:0.85
Language                                 : Japanese
Default                                  : Yes
Forced                                   : No
Color range                              : Limited
Color primaries                          : BT.709
Transfer characteristics                 : BT.709
Matrix coefficients                      : BT.709

Audio
ID                                       : 3
Format                                   : FLAC
Format/Info                              : Free Lossless Audio Codec
Codec ID                                 : A_FLAC
Duration                                 : 11mn 56s
Bit rate mode                            : Variable
Bit rate                                 : 1 439 Kbps
Channel(s)                               : 2 channels
Channel positions                        : Front: L R
Sampling rate                            : 48.0 KHz
Frame rate                               : 11.720 fps (4096 spf)
Bit depth                                : 24 bits
Stream size                              : 123 MiB (21%)
Title                                    : LPCM->FLAC
Writing library                          : libFLAC 1.3.1 (UTC 2014-11-25)
Language                                 : Japanese
Default                                  : Yes
Forced                                   : No

Text
ID                                       : 1
Format                                   : ASS
Codec ID                                 : S_TEXT/ASS
Codec ID/Info                            : Advanced Sub Station Alpha
Duration                                 : 11mn 33s
Bit rate                                 : 200 bps
Count of elements                        : 219
Compression mode                         : Lossless
Stream size                              : 17.0 KiB (0%)
Default                                  : Yes
Forced                                   : No

Menu
00:00:00.000                             : :OP
00:01:31.007                             : :Part A
00:01:35.011                             : :Part B
00:01:38.515                             : :Part C
00:04:58.298                             : :Part D
00:06:39.858                             : :Part E
00:08:36.266                             : :Part F
00:10:25.041                             : :ED

Other Files in this Torrent
[Sajamba] Koyomimonogatari - 03 (BD 1920x1080 x264 FLAC).mkv
beta
Anime DDL+NZB mirror
Current Time: 07/12/2022 04:34



About/FAQs

Discord