[Sajamba] Koyomimonogatari - 06 (BD 1920x1080 x264 FLAC).mkv


File Size877.8 MB (920,473,559 bytes)
DownloadJheberg | MultiUp
  • ClickNupload
  • Fichier
  • Filerio
  • Free
  • Fufox
  • HugeFiles
  • Mightyupload
  • ToutBox
  • Turbobit
  • UpToBox
  • Uplea
  • UploadBaz
  • Uploadable
  • Uploaded
  • Uppit
  • Userscloud
| OpenLoad | UsersCloud
Sendspace: Part1, Part2, Part3
SolidFiles: Part1, Part2
HashesCRC32: 41CBF832, MD5: 65D64C96DF8BE4B9B286073543B0C06E, SHA1: 22191A07F027C62B49B501AF46C8F52B1EDD0206, SHA256: FFBB5F6EBAFAC855D66B540FDA360A44C1868EE068EC7C2724BBF4F59DDF4BB4, ED2K: 4ADF52F34EAAB613C6E277BA08EAA752
Screenshots
screenshotscreenshotscreenshotscreenshotscreenshot
SubtitlesAll Attachments | und [ASS]
Additional Info
General
Unique ID                                : 179858860572467672983616317465011925816 (0x874F8E7902EF68559AAC40EE4AE3B338)
Complete name                            : [Sajamba] Koyomimonogatari - 06  (BD 1920x1080 x264 FLAC).mkv
Format                                   : Matroska
Format version                           : Version 4 / Version 2
File size                                : 878 MiB
Duration                                 : 15mn 2s
Overall bit rate mode                    : Variable
Overall bit rate                         : 8 162 Kbps
Encoded date                             : UTC 2016-07-30 14:42:35
Writing application                      : mkvmerge v9.2.0 ('Photograph') 64bit
Writing library                          : libebml v1.3.3 + libmatroska v1.4.4
Attachments                              : Cabin-BoldItalic-TTF_0.ttf / Cabin-Bold-TTF_0.ttf / calibri_0.ttf / calibril_0.ttf / Complete in Him_0.ttf / ufonts.com_levenim-mt_0.ttf / ufonts.com_levenim-mt-bold_0.ttf / wminsects1_0.TTF

Video
ID                                       : 1
Format                                   : AVC
Format/Info                              : Advanced Video Codec
Format profile                           : High 10@L5
Format settings, CABAC                   : Yes
Format settings, ReFrames                : 4 frames
Codec ID                                 : V_MPEG4/ISO/AVC
Duration                                 : 15mn 2s
Bit rate                                 : 6 751 Kbps
Width                                    : 1 920 pixels
Height                                   : 1 080 pixels
Display aspect ratio                     : 16:9
Frame rate mode                          : Constant
Frame rate                               : 23.976 (24000/1001) fps
Color space                              : YUV
Chroma subsampling                       : 4:2:0
Bit depth                                : 10 bits
Scan type                                : Progressive
Bits/(Pixel*Frame)                       : 0.136
Stream size                              : 726 MiB (83%)
Title                                    : BDRip by Vladdrako
Writing library                          : x264 core 148 (DJATOM's build)
Encoding settings                        : cabac=1 / ref=4 / deblock=1:1:-1 / analyse=0x3:0x113 / me=umh / subme=9 / psy=1 / fade_compensate=0.00 / psy_rd=1.00:0.00 / mixed_ref=1 / me_range=32 / chroma_me=1 / trellis=2 / 8x8dct=1 / cqm=0 / deadzone=21,11 / fast_pskip=1 / chroma_qp_offset=-2 / threads=12 / lookahead_threads=2 / sliced_threads=0 / nr=0 / decimate=1 / interlaced=0 / bluray_compat=0 / constrained_intra=0 / bframes=9 / b_pyramid=2 / b_adapt=2 / b_bias=0 / direct=1 / weightb=1 / open_gop=0 / weightp=2 / keyint=250 / keyint_min=23 / scenecut=40 / intra_refresh=0 / rc=crf / mbtree=0 / crf=16.0000 / qcomp=0.72 / qpmin=0 / qpmax=81 / qpstep=4 / ip_ratio=1.40 / pb_ratio=1.30 / aq=1:0.85
Language                                 : Japanese
Default                                  : Yes
Forced                                   : No
Color range                              : Limited
Color primaries                          : BT.709
Transfer characteristics                 : BT.709
Matrix coefficients                      : BT.709

Audio
ID                                       : 2
Format                                   : FLAC
Format/Info                              : Free Lossless Audio Codec
Codec ID                                 : A_FLAC
Duration                                 : 15mn 2s
Bit rate mode                            : Variable
Bit rate                                 : 1 389 Kbps
Channel(s)                               : 2 channels
Channel positions                        : Front: L R
Sampling rate                            : 48.0 KHz
Frame rate                               : 11.720 fps (4096 spf)
Bit depth                                : 24 bits
Stream size                              : 149 MiB (17%)
Title                                    : LPCM->FLAC
Writing library                          : libFLAC 1.3.1 (UTC 2014-11-25)
Language                                 : Japanese
Default                                  : Yes
Forced                                   : No

Text
ID                                       : 3
Format                                   : ASS
Codec ID                                 : S_TEXT/ASS
Codec ID/Info                            : Advanced Sub Station Alpha
Duration                                 : 14mn 37s
Bit rate                                 : 302 bps
Count of elements                        : 353
Compression mode                         : Lossless
Stream size                              : 32.4 KiB (0%)
Default                                  : Yes
Forced                                   : No

Menu
00:00:00.000                             : :OP
00:01:31.091                             : :Part A
00:01:35.095                             : :Part B
00:01:43.145                             : :Part C
00:02:09.463                             : :Part D
00:07:45.632                             : :Part E
00:08:33.054                             : :Part F
00:10:15.615                             : :Part G
00:13:29.100                             : :ED

Other Files in this Torrent
[Sajamba] Koyomimonogatari - 06 (BD 1920x1080 x264 FLAC).mkv
beta
Anime DDL+NZB mirror
Current Time: 07/12/2022 03:32



About/FAQs

Discord