File Size556.8 MB (583,800,881 bytes)
DownloadAnonFiles | ClickNUpload | DropAPK | Free
MultiUp: Part1
  • BdUpload
  • DownAce
  • Fichier
  • FileCloud
  • Filerio
  • FilesCdn
  • IndiShare
  • Kbagi
  • Turbobit
  • UpToBox
  • Uppit
, Part2
  • BdUpload
  • DownAce
  • Fichier
  • FileCloud
  • Filerio
  • FilesCdn
  • IndiShare
  • Kbagi
  • Turbobit
  • UpToBox
  • Uppit

Sendspace: Part1, Part2
SolidFiles: Part1, Part2
ZippyShare: Part1, Part2
HashesCRC32: 0EE3CCCE, MD5: 9A7615AB9D7F0473F466B892CD3CD021, SHA1: 38F87D6793C71E66DA03A878928B7B133738FEC2, SHA256: 168F9B336E08CB60E3F5A31D5CABBD06CA7FA77E7DACEA121A98AA78768E7981, ED2K: 6564AB6DE80553999431B2ACCFCD36FE
Screenshots
screenshotscreenshotscreenshotscreenshotscreenshot
SubtitlesAll Attachments | Dialogue [eng, PGS], Signs [eng, PGS]
Additional Info
General
Unique ID                                : 146680292289562903253115293507533747634 (0x6E5998C27541C8D6498AAEA49FA935B2)
Complete name                            : S02OVA-A Healing Trip that Warms the Heart.mkv
Format                                   : Matroska
Format version                           : Version 4
File size                                : 557 MiB
Duration                                 : 24 min 11 s
Overall bit rate                         : 3 217 kb/s
Movie name                               : S02OVA-EMBER
Encoded date                             : UTC 2020-08-26 06:32:12
Writing application                      : mkvmerge v48.0.0 ('Fortress Around Your Heart') 64-bit
Writing library                          : libebml v1.4.0 + libmatroska v1.6.0
Cover                                    : Yes
Attachments                              : cover.jpg

Video
ID                                       : 1
Format                                   : HEVC
Format/Info                              : High Efficiency Video Coding
Format profile                           : Main 10@L5@High
Codec ID                                 : V_MPEGH/ISO/HEVC
Duration                                 : 24 min 11 s
Bit rate                                 : 2 552 kb/s
Width                                    : 1 920 pixels
Height                                   : 1 080 pixels
Display aspect ratio                     : 16:9
Frame rate mode                          : Constant
Frame rate                               : 23.976 (24000/1001) FPS
Color space                              : YUV
Chroma subsampling                       : 4:2:0
Bit depth                                : 10 bits
Bits/(Pixel*Frame)                       : 0.051
Stream size                              : 442 MiB (79%)
Default                                  : Yes
Forced                                   : No

Audio #1
ID                                       : 4
Format                                   : AC-3
Format/Info                              : Audio Coding 3
Commercial name                          : Dolby Digital
Codec ID                                 : A_AC3
Duration                                 : 24 min 11 s
Bit rate mode                            : Constant
Bit rate                                 : 192 kb/s
Channel(s)                               : 2 channels
Channel layout                           : L R
Sampling rate                            : 48.0 kHz
Frame rate                               : 31.250 FPS (1536 SPF)
Bit depth                                : 16 bits
Compression mode                         : Lossy
Stream size                              : 33.2 MiB (6%)
Language                                 : Japanese
Service kind                             : Complete Main
Default                                  : No
Forced                                   : No

Audio #2
ID                                       : 5
Format                                   : AC-3
Format/Info                              : Audio Coding 3
Commercial name                          : Dolby Digital
Codec ID                                 : A_AC3
Duration                                 : 24 min 10 s
Bit rate mode                            : Constant
Bit rate                                 : 384 kb/s
Channel(s)                               : 2 channels
Channel layout                           : L R
Sampling rate                            : 48.0 kHz
Frame rate                               : 31.250 FPS (1536 SPF)
Bit depth                                : 16 bits
Compression mode                         : Lossy
Stream size                              : 66.4 MiB (12%)
Language                                 : English
Service kind                             : Complete Main
Default                                  : Yes
Forced                                   : No

Text #1
ID                                       : 2
Format                                   : PGS
Codec ID                                 : S_HDMV/PGS
Codec ID/Info                            : Picture based subtitle format used on BDs/HD-DVDs
Duration                                 : 23 min 45 s
Bit rate                                 : 77.3 kb/s
Count of elements                        : 831
Stream size                              : 13.1 MiB (2%)
Title                                    : Dialogue
Language                                 : English
Default                                  : No
Forced                                   : No

Text #2
ID                                       : 3
Format                                   : PGS
Codec ID                                 : S_HDMV/PGS
Codec ID/Info                            : Picture based subtitle format used on BDs/HD-DVDs
Duration                                 : 23 min 1 s
Bit rate                                 : 11.1 kb/s
Count of elements                        : 79
Stream size                              : 1.83 MiB (0%)
Title                                    : Signs
Language                                 : English
Default                                  : Yes
Forced                                   : No

Menu
00:00:00.000                             : en:Intro
00:02:44.247                             : en:Part A
00:14:58.898                             : en:Part B
00:21:51.101                             : en:Part C

Other Files in this Torrent
S02OVA-A Healing Trip that Warms the Heart.mkv
beta
Anime DDL+NZB mirror
Current Time: 12/06/2024 22:42



About/FAQs

Discord