File Size594.9 MB (623,803,754 bytes)
DownloadAnonFiles | ClickNUpload | DropAPK | Free
MultiUp: Part1
  • BdUpload
  • DownAce
  • Fichier
  • FileCloud
  • Filerio
  • FilesCdn
  • IndiShare
  • Kbagi
  • Turbobit
  • UpToBox
  • Uppit
, Part2
  • BdUpload
  • DownAce
  • Fichier
  • FileCloud
  • Filerio
  • FilesCdn
  • IndiShare
  • Kbagi
  • Turbobit
  • UpToBox
  • Uppit

Sendspace: Part1, Part2
SolidFiles: Part1, Part2
ZippyShare: Part1, Part2
HashesCRC32: C22D6D65, MD5: 8EE2BBE4A82DFF01101F270277AE9BED, SHA1: 2C99F40FC971DD64423FF098C15250E37045DC1B, SHA256: CD804024F5601665B061C3C9D06614DC394B123F8C180908514D16E3A2F61185, ED2K: ED280103CF888C64FA9F1351A18EFD00
Screenshots
screenshotscreenshotscreenshotscreenshotscreenshot
SubtitlesAll Attachments | Dialogue [eng, PGS], Signs [eng, PGS]
Additional Info
General
Unique ID                                : 201379365109057777826920745240429091968 (0x978041440B5238B193202F58A5B05C80)
Complete name                            : S02E12-The Battle for Social Rehabilitation ~Friendship.mkv
Format                                   : Matroska
Format version                           : Version 4
File size                                : 595 MiB
Duration                                 : 24 min 12 s
Overall bit rate                         : 3 436 kb/s
Movie name                               : S02E12-EMBER
Encoded date                             : UTC 2020-08-26 06:28:55
Writing application                      : mkvmerge v48.0.0 ('Fortress Around Your Heart') 64-bit
Writing library                          : libebml v1.4.0 + libmatroska v1.6.0
Cover                                    : Yes
Attachments                              : cover.jpg

Video
ID                                       : 1
Format                                   : HEVC
Format/Info                              : High Efficiency Video Coding
Format profile                           : Main 10@L5@High
Codec ID                                 : V_MPEGH/ISO/HEVC
Duration                                 : 24 min 12 s
Bit rate                                 : 2 790 kb/s
Width                                    : 1 920 pixels
Height                                   : 1 080 pixels
Display aspect ratio                     : 16:9
Frame rate mode                          : Constant
Frame rate                               : 23.976 (24000/1001) FPS
Color space                              : YUV
Chroma subsampling                       : 4:2:0
Bit depth                                : 10 bits
Bits/(Pixel*Frame)                       : 0.056
Stream size                              : 483 MiB (81%)
Default                                  : Yes
Forced                                   : No

Audio #1
ID                                       : 4
Format                                   : AC-3
Format/Info                              : Audio Coding 3
Commercial name                          : Dolby Digital
Codec ID                                 : A_AC3
Duration                                 : 24 min 12 s
Bit rate mode                            : Constant
Bit rate                                 : 384 kb/s
Channel(s)                               : 6 channels
Channel layout                           : L R C LFE Ls Rs
Sampling rate                            : 48.0 kHz
Frame rate                               : 31.250 FPS (1536 SPF)
Bit depth                                : 16 bits
Compression mode                         : Lossy
Stream size                              : 66.5 MiB (11%)
Language                                 : English
Service kind                             : Complete Main
Default                                  : Yes
Forced                                   : No

Audio #2
ID                                       : 5
Format                                   : AC-3
Format/Info                              : Audio Coding 3
Commercial name                          : Dolby Digital
Codec ID                                 : A_AC3
Duration                                 : 24 min 12 s
Bit rate mode                            : Constant
Bit rate                                 : 192 kb/s
Channel(s)                               : 2 channels
Channel layout                           : L R
Sampling rate                            : 48.0 kHz
Frame rate                               : 31.250 FPS (1536 SPF)
Bit depth                                : 16 bits
Compression mode                         : Lossy
Stream size                              : 33.2 MiB (6%)
Language                                 : Japanese
Service kind                             : Complete Main
Default                                  : No
Forced                                   : No

Text #1
ID                                       : 2
Format                                   : PGS
Codec ID                                 : S_HDMV/PGS
Codec ID/Info                            : Picture based subtitle format used on BDs/HD-DVDs
Duration                                 : 24 min 6 s
Bit rate                                 : 61.2 kb/s
Count of elements                        : 828
Stream size                              : 10.6 MiB (2%)
Title                                    : Dialogue
Language                                 : English
Default                                  : No
Forced                                   : No

Text #2
ID                                       : 3
Format                                   : PGS
Codec ID                                 : S_HDMV/PGS
Codec ID/Info                            : Picture based subtitle format used on BDs/HD-DVDs
Duration                                 : 24 min 6 s
Bit rate                                 : 6 732 b/s
Count of elements                        : 89
Stream size                              : 1.16 MiB (0%)
Title                                    : Signs
Language                                 : English
Default                                  : Yes
Forced                                   : No

Menu
00:00:00.000                             : en:OP
00:01:31.007                             : en:Part A
00:10:37.261                             : en:Part B
00:22:26.261                             : en:ED
00:23:56.184                             : en:Preview

Other Files in this Torrent
S02E12-The Battle for Social Rehabilitation ~Friendship.mkv
beta
Anime DDL+NZB mirror
Current Time: 23/06/2024 14:32



About/FAQs

Discord