File Size563.3 MB (590,652,013 bytes)
DownloadAnonFiles | ClickNUpload | DropAPK | Free
MultiUp: Part1
  • BdUpload
  • DownAce
  • Fichier
  • FileCloud
  • Filerio
  • FilesCdn
  • IndiShare
  • Kbagi
  • Turbobit
  • UpToBox
  • Uppit
, Part2
  • BdUpload
  • DownAce
  • Fichier
  • FileCloud
  • Filerio
  • FilesCdn
  • IndiShare
  • Kbagi
  • Turbobit
  • UpToBox
  • Uppit

Sendspace: Part1, Part2
SolidFiles: Part1, Part2
ZippyShare: Part1, Part2
HashesCRC32: 32DFE3E6, MD5: D09E9E264E040F0DCD547F34B35F948D, SHA1: 2DA84827C45FEC62E7F2E82B556758F6253BD980, SHA256: 94D3A65D65894FB9012AAD286F2CCB4DDDE1B17D742393D3DE06B28392A32EFC, ED2K: 81F38F754C4FFA84BE33BB3524430BB5
Screenshots
screenshotscreenshotscreenshotscreenshotscreenshot
SubtitlesAll Attachments | Dialogue [eng, PGS], Signs [eng, PGS]
Additional Info
General
Unique ID                                : 19573911752253831207331246113268105239 (0xEB9CC5BE5C83B3BD851151522CF0017)
Complete name                            : S02E03-One Danger After Another ~Degeneration.mkv
Format                                   : Matroska
Format version                           : Version 4
File size                                : 563 MiB
Duration                                 : 24 min 12 s
Overall bit rate                         : 3 254 kb/s
Movie name                               : S02E03-EMBER
Encoded date                             : UTC 2020-08-26 06:04:09
Writing application                      : mkvmerge v48.0.0 ('Fortress Around Your Heart') 64-bit
Writing library                          : libebml v1.4.0 + libmatroska v1.6.0
Cover                                    : Yes
Attachments                              : cover.jpg

Video
ID                                       : 1
Format                                   : HEVC
Format/Info                              : High Efficiency Video Coding
Format profile                           : Main 10@L5@High
Codec ID                                 : V_MPEGH/ISO/HEVC
Duration                                 : 24 min 12 s
Bit rate                                 : 2 590 kb/s
Width                                    : 1 920 pixels
Height                                   : 1 080 pixels
Display aspect ratio                     : 16:9
Frame rate mode                          : Constant
Frame rate                               : 23.976 (24000/1001) FPS
Color space                              : YUV
Chroma subsampling                       : 4:2:0
Bit depth                                : 10 bits
Bits/(Pixel*Frame)                       : 0.052
Stream size                              : 448 MiB (80%)
Default                                  : Yes
Forced                                   : No

Audio #1
ID                                       : 4
Format                                   : AC-3
Format/Info                              : Audio Coding 3
Commercial name                          : Dolby Digital
Codec ID                                 : A_AC3
Duration                                 : 24 min 12 s
Bit rate mode                            : Constant
Bit rate                                 : 384 kb/s
Channel(s)                               : 6 channels
Channel layout                           : L R C LFE Ls Rs
Sampling rate                            : 48.0 kHz
Frame rate                               : 31.250 FPS (1536 SPF)
Bit depth                                : 16 bits
Compression mode                         : Lossy
Stream size                              : 66.5 MiB (12%)
Language                                 : English
Service kind                             : Complete Main
Default                                  : Yes
Forced                                   : No

Audio #2
ID                                       : 5
Format                                   : AC-3
Format/Info                              : Audio Coding 3
Commercial name                          : Dolby Digital
Codec ID                                 : A_AC3
Duration                                 : 24 min 12 s
Bit rate mode                            : Constant
Bit rate                                 : 192 kb/s
Channel(s)                               : 2 channels
Channel layout                           : L R
Sampling rate                            : 48.0 kHz
Frame rate                               : 31.250 FPS (1536 SPF)
Bit depth                                : 16 bits
Compression mode                         : Lossy
Stream size                              : 33.2 MiB (6%)
Language                                 : Japanese
Service kind                             : Complete Main
Default                                  : No
Forced                                   : No

Text #1
ID                                       : 2
Format                                   : PGS
Codec ID                                 : S_HDMV/PGS
Codec ID/Info                            : Picture based subtitle format used on BDs/HD-DVDs
Duration                                 : 24 min 7 s
Bit rate                                 : 70.1 kb/s
Count of elements                        : 860
Stream size                              : 12.1 MiB (2%)
Title                                    : Dialogue
Language                                 : English
Default                                  : No
Forced                                   : No

Text #2
ID                                       : 3
Format                                   : PGS
Codec ID                                 : S_HDMV/PGS
Codec ID/Info                            : Picture based subtitle format used on BDs/HD-DVDs
Duration                                 : 24 min 7 s
Bit rate                                 : 14.9 kb/s
Count of elements                        : 127
Stream size                              : 2.57 MiB (0%)
Title                                    : Signs
Language                                 : English
Default                                  : Yes
Forced                                   : No

Menu
00:00:00.000                             : en:Intro
00:00:25.025                             : en:OP
00:01:55.073                             : en:Part A
00:10:43.351                             : en:Part B
00:22:26.345                             : en:ED
00:23:56.268                             : en:Preview

Other Files in this Torrent
S02E03-One Danger After Another ~Degeneration.mkv
beta
Anime DDL+NZB mirror
Current Time: 24/05/2024 16:55



About/FAQs

Discord