File Size593.0 MB (621,856,633 bytes)
DownloadAnonFiles | ClickNUpload | DropAPK | Free
MultiUp: Part1
  • BdUpload
  • DownAce
  • Fichier
  • FileCloud
  • Filerio
  • FilesCdn
  • IndiShare
  • Kbagi
  • Turbobit
  • UpToBox
  • Uppit
, Part2
  • BdUpload
  • DownAce
  • Fichier
  • FileCloud
  • Filerio
  • FilesCdn
  • IndiShare
  • Kbagi
  • Turbobit
  • UpToBox
  • Uppit

Sendspace: Part1, Part2
SolidFiles: Part1, Part2
ZippyShare: Part1, Part2
HashesCRC32: BC2D8A26, MD5: E09128ADAA5A5964F26FE3B6C21D4B9C, SHA1: EF3B133B4EB75334F8D80CD4ECC1F1E6B86C96A9, SHA256: 7868A9437F462EF920BCE92C5A86DFDD1C09B7A56EA2F18E904242F389FAED75, ED2K: 947763C7A0A2E98DD087E4B4D8B5AB98
Screenshots
screenshotscreenshotscreenshotscreenshotscreenshot
SubtitlesAll Attachments | Dialogue [eng, PGS], Signs [eng, PGS]
Additional Info
General
Unique ID                                : 79687061731659058761559080515764285150 (0x3BF32B7A6EC0ABA3D34087DC8A7CEEDE)
Complete name                            : S02E05-Discord ~Choices.mkv
Format                                   : Matroska
Format version                           : Version 4
File size                                : 593 MiB
Duration                                 : 24 min 12 s
Overall bit rate                         : 3 426 kb/s
Movie name                               : S02E05-EMBER
Encoded date                             : UTC 2020-08-26 06:10:31
Writing application                      : mkvmerge v48.0.0 ('Fortress Around Your Heart') 64-bit
Writing library                          : libebml v1.4.0 + libmatroska v1.6.0
Cover                                    : Yes
Attachments                              : cover.jpg

Video
ID                                       : 1
Format                                   : HEVC
Format/Info                              : High Efficiency Video Coding
Format profile                           : Main 10@L5@High
Codec ID                                 : V_MPEGH/ISO/HEVC
Duration                                 : 24 min 12 s
Bit rate                                 : 2 780 kb/s
Width                                    : 1 920 pixels
Height                                   : 1 080 pixels
Display aspect ratio                     : 16:9
Frame rate mode                          : Constant
Frame rate                               : 23.976 (24000/1001) FPS
Color space                              : YUV
Chroma subsampling                       : 4:2:0
Bit depth                                : 10 bits
Bits/(Pixel*Frame)                       : 0.056
Stream size                              : 481 MiB (81%)
Default                                  : Yes
Forced                                   : No

Audio #1
ID                                       : 4
Format                                   : AC-3
Format/Info                              : Audio Coding 3
Commercial name                          : Dolby Digital
Codec ID                                 : A_AC3
Duration                                 : 24 min 12 s
Bit rate mode                            : Constant
Bit rate                                 : 384 kb/s
Channel(s)                               : 6 channels
Channel layout                           : L R C LFE Ls Rs
Sampling rate                            : 48.0 kHz
Frame rate                               : 31.250 FPS (1536 SPF)
Bit depth                                : 16 bits
Compression mode                         : Lossy
Stream size                              : 66.5 MiB (11%)
Language                                 : English
Service kind                             : Complete Main
Default                                  : Yes
Forced                                   : No

Audio #2
ID                                       : 5
Format                                   : AC-3
Format/Info                              : Audio Coding 3
Commercial name                          : Dolby Digital
Codec ID                                 : A_AC3
Duration                                 : 24 min 12 s
Bit rate mode                            : Constant
Bit rate                                 : 192 kb/s
Channel(s)                               : 2 channels
Channel layout                           : L R
Sampling rate                            : 48.0 kHz
Frame rate                               : 31.250 FPS (1536 SPF)
Bit depth                                : 16 bits
Compression mode                         : Lossy
Stream size                              : 33.2 MiB (6%)
Language                                 : Japanese
Service kind                             : Complete Main
Default                                  : No
Forced                                   : No

Text #1
ID                                       : 2
Format                                   : PGS
Codec ID                                 : S_HDMV/PGS
Codec ID/Info                            : Picture based subtitle format used on BDs/HD-DVDs
Duration                                 : 24 min 8 s
Bit rate                                 : 61.5 kb/s
Count of elements                        : 782
Stream size                              : 10.6 MiB (2%)
Title                                    : Dialogue
Language                                 : English
Default                                  : No
Forced                                   : No

Text #2
ID                                       : 3
Format                                   : PGS
Codec ID                                 : S_HDMV/PGS
Codec ID/Info                            : Picture based subtitle format used on BDs/HD-DVDs
Duration                                 : 24 min 1 s
Bit rate                                 : 5 974 b/s
Count of elements                        : 73
Stream size                              : 1.03 MiB (0%)
Title                                    : Signs
Language                                 : English
Default                                  : Yes
Forced                                   : No

Menu
00:00:00.000                             : en:Intro
00:00:11.011                             : en:OP
00:01:41.017                             : en:Part A
00:13:41.237                             : en:Part B
00:22:28.722                             : en:ED
00:23:56.184                             : en:Preview

Other Files in this Torrent
S02E05-Discord ~Choices.mkv
beta
Anime DDL+NZB mirror
Current Time: 16/07/2024 08:15



About/FAQs

Discord