[RH] Nora to Oujo to Noraneko Heart - 12 [9864A643].mkv


File Size130.7 MB (137,011,048 bytes)
DownloadClickNUpload | Go4Up | Jheberg | MultiUp
  • ClickNupload
  • Fichier
  • Filerio
  • Free
  • Fufox
  • HugeFiles
  • Mightyupload
  • ToutBox
  • Turbobit
  • UpToBox
  • Uplea
  • UploadBaz
  • Uploadable
  • Uploaded
  • Uppit
  • Userscloud
  • ZippyShare
| OpenLoad | Sendspace | SolidFiles
Encrypted DownloadDirect
Password:
HashesCRC32: 9864A643, MD5: 1C0B6F27B3FD85F27F44EFA12DCAEF8E, SHA1: 6DFD8956BF1BDD7772988164D8F1A5DE20B7E800, SHA256: E6F48C58FCCEF6848FDE21DEDCBD302F3E87B3EEB76F280FD08A2234491B4996, ED2K: 3B6E37235437D8A39ECFB7DCEEEE64B8
Screenshots
screenshotscreenshotscreenshotscreenshot
SubtitlesAll Attachments | RH [eng, ASS]
Additional Info
General
Unique ID                                : 189936009384227501972146087931123369006 (0x8EE45844C022EAF9B3F3833D4A64842E)
Complete name                            : [RH] Nora to Oujo to Noraneko Heart - 12 [9864A643].mkv
Format                                   : Matroska
Format version                           : Version 4 / Version 2
File size                                : 131 MiB
Duration                                 : 3 min 30 s
Overall bit rate                         : 5 217 kb/s
Movie name                               : [RH] Nora to Oujo to Noraneko Heart - 12 [WebRip] [Hi10] [1080p]
Encoded date                             : UTC 2017-10-03 03:21:37
Writing application                      : mkvmerge v15.0.0 ('Duel with the Devil') 64-bit
Writing library                          : libebml v1.3.5 + libmatroska v1.4.5
Attachments                              : LT_5.ttf / RH-Sans.ttf / RH-Sans-Italic.ttf

Video
ID                                       : 1
Format                                   : AVC
Format/Info                              : Advanced Video Codec
Format profile                           : High 10@L5.2
Format settings, CABAC                   : Yes
Format settings, ReFrames                : 16 frames
Codec ID                                 : V_MPEG4/ISO/AVC
Duration                                 : 3 min 30 s
Bit rate                                 : 5 071 kb/s
Width                                    : 1 920 pixels
Height                                   : 1 080 pixels
Display aspect ratio                     : 16:9
Frame rate mode                          : Constant
Frame rate                               : 29.970 (30000/1001) FPS
Color space                              : YUV
Chroma subsampling                       : 4:2:0
Bit depth                                : 10 bits
Scan type                                : Progressive
Bits/(Pixel*Frame)                       : 0.082
Stream size                              : 127 MiB (97%)
Title                                    : Hi10 1080p h.264
Writing library                          : 686172656D206F6620737475706964206769726C73
Encoding settings                        : 77616E6E61206675636B206120636174
Language                                 : Japanese
Default                                  : Yes
Forced                                   : No
Color range                              : Limited
Color primaries                          : BT.709
Transfer characteristics                 : BT.709
Matrix coefficients                      : BT.709

Audio
ID                                       : 2
Format                                   : AAC
Format/Info                              : Advanced Audio Codec
Format profile                           : LC
Codec ID                                 : A_AAC
Duration                                 : 3 min 30 s
Bit rate                                 : 128 kb/s
Channel(s)                               : 2 channels
Channel positions                        : Front: L R
Sampling rate                            : 44.1 kHz
Frame rate                               : 43.066 FPS (1024 spf)
Compression mode                         : Lossy
Stream size                              : 3.21 MiB (2%)
Title                                    : 2.0 AAC
Language                                 : Japanese
Default                                  : Yes
Forced                                   : No

Text
ID                                       : 3
Format                                   : ASS
Codec ID                                 : S_TEXT/ASS
Codec ID/Info                            : Advanced Sub Station Alpha
Duration                                 : 3 min 21 s
Bit rate                                 : 168 b/s
Count of elements                        : 73
Compression mode                         : Lossless
Stream size                              : 4.14 KiB (0%)
Title                                    : RH
Language                                 : English
Default                                  : Yes
Forced                                   : No

Menu
00:00:00.000                             : en:Episode
00:03:18.298                             : en:A Cat's Thoughts

Other Files in this Torrent
[RH] Nora to Oujo to Noraneko Heart - 12 [9864A643].mkv
beta
Anime DDL+NZB mirror
Current Time: 09/12/2019 02:30



About/FAQs