[RH] Nora to Oujo to Noraneko Heart - 10 [45BDB019].mkv


File Size39.38 MB (41,288,841 bytes)
DownloadClickNUpload | Go4Up | Jheberg | MultiUp
  • ClickNupload
  • Fichier
  • Filerio
  • Free
  • Fufox
  • HugeFiles
  • Mightyupload
  • ToutBox
  • Turbobit
  • UpToBox
  • Uplea
  • UploadBaz
  • Uploadable
  • Uploaded
  • Uppit
  • Userscloud
  • ZippyShare
| OpenLoad | Sendspace | SolidFiles
Encrypted DownloadDirect
Password:
HashesCRC32: 45BDB019, MD5: 7B46997E00F144983FCFDA1992D1180C, SHA1: 6A78A6B581B646537CA02A3D687608C25CEDFE42, SHA256: C7C91CD29742B6855D294B7C4F270876A46A23C79C81C66DDBD3AEAAC8BFFD62, ED2K: C36A789102821B6F5FC2C0F683F8619D
Screenshots
screenshotscreenshotscreenshotscreenshot
SubtitlesAll Attachments | RH [eng, ASS]
Additional Info
General
Unique ID                                : 236412454927076270320793696795470250325 (0xB1DB61F3304FFEB2A845B5A72F1EC155)
Complete name                            : [RH] Nora to Oujo to Noraneko Heart - 10 [45BDB019].mkv
Format                                   : Matroska
Format version                           : Version 4 / Version 2
File size                                : 39.4 MiB
Duration                                 : 3 min 30 s
Overall bit rate                         : 1 572 kb/s
Movie name                               : [RH] Nora to Oujo to Noraneko Heart - 10 [WebRip] [Hi10] [1080p]
Encoded date                             : UTC 2017-09-14 11:29:16
Writing application                      : mkvmerge v15.0.0 ('Duel with the Devil') 64-bit
Writing library                          : libebml v1.3.5 + libmatroska v1.4.5
Attachments                              : adrip1.ttf / ARLRDBD.TTF / LT_5.ttf / RH-Sans.ttf

Video
ID                                       : 1
Format                                   : AVC
Format/Info                              : Advanced Video Codec
Format profile                           : High 10@L5.2
Format settings, CABAC                   : Yes
Format settings, ReFrames                : 16 frames
Codec ID                                 : V_MPEG4/ISO/AVC
Duration                                 : 3 min 30 s
Bit rate                                 : 1 428 kb/s
Width                                    : 1 920 pixels
Height                                   : 1 080 pixels
Display aspect ratio                     : 16:9
Frame rate mode                          : Constant
Frame rate                               : 29.970 (30000/1001) FPS
Color space                              : YUV
Chroma subsampling                       : 4:2:0
Bit depth                                : 10 bits
Scan type                                : Progressive
Bits/(Pixel*Frame)                       : 0.023
Stream size                              : 35.8 MiB (91%)
Title                                    : Hi10 1080p h.264
Writing library                          : 686172656D206F6620737475706964206769726C73
Encoding settings                        : 77616E6E61206675636B206120636174
Language                                 : Japanese
Default                                  : Yes
Forced                                   : No
Color range                              : Limited
Color primaries                          : BT.709
Transfer characteristics                 : BT.709
Matrix coefficients                      : BT.709

Audio
ID                                       : 2
Format                                   : AAC
Format/Info                              : Advanced Audio Codec
Format profile                           : LC
Codec ID                                 : A_AAC
Duration                                 : 3 min 30 s
Bit rate                                 : 128 kb/s
Channel(s)                               : 2 channels
Channel positions                        : Front: L R
Sampling rate                            : 44.1 kHz
Frame rate                               : 43.066 FPS (1024 spf)
Compression mode                         : Lossy
Stream size                              : 3.21 MiB (8%)
Title                                    : 2.0 AAC
Language                                 : Japanese
Default                                  : Yes
Forced                                   : No

Text
ID                                       : 3
Format                                   : ASS
Codec ID                                 : S_TEXT/ASS
Codec ID/Info                            : Advanced Sub Station Alpha
Duration                                 : 3 min 29 s
Bit rate                                 : 536 b/s
Count of elements                        : 150
Compression mode                         : Lossless
Stream size                              : 13.8 KiB (0%)
Title                                    : RH
Language                                 : English
Default                                  : Yes
Forced                                   : No

Menu
00:00:00.000                             : en:Push Start
00:00:14.915                             : en:Episode
00:03:15.595                             : en:A Cat's Thoughts

Other Files in this Torrent
[RH] Nora to Oujo to Noraneko Heart - 10 [45BDB019].mkv
beta
Anime DDL+NZB mirror
Current Time: 12/12/2019 19:40



About/FAQs