[RH] Nora to Oujo to Noraneko Heart - 01 [DFF54859].mkv


File Size70.88 MB (74,327,902 bytes)
DownloadClickNUpload | Go4Up | Jheberg | MultiUp
  • ClickNupload
  • Fichier
  • Filerio
  • Free
  • Fufox
  • HugeFiles
  • Mightyupload
  • ToutBox
  • Turbobit
  • UpToBox
  • Uplea
  • UploadBaz
  • Uploadable
  • Uploaded
  • Uppit
  • Userscloud
  • ZippyShare
| OpenLoad | Sendspace | SolidFiles
Encrypted DownloadDirect
Password:
HashesCRC32: DFF54859, MD5: A8ED13F8F7B1FFFB7B8DA8C55923041E, SHA1: 245FFB80636A15AAA0FFBA20AA470048706E861E, SHA256: 45CA4B06E79334816FCFBD6866B95E8171957DE637914B4B2BA7B01E60507A35, ED2K: EC04F9D16737497823D38DAAA8837937
Screenshots
screenshotscreenshotscreenshotscreenshot
SubtitlesAll Attachments | RH [eng, ASS]
Additional Info
General
Unique ID                                : 237843361015979120617960990932785659693 (0xB2EEF711266482FEA825AB4AC3137F2D)
Complete name                            : [RH] Nora to Oujo to Noraneko Heart - 01 [DFF54859].mkv
Format                                   : Matroska
Format version                           : Version 4 / Version 2
File size                                : 70.9 MiB
Duration                                 : 3 min 30 s
Overall bit rate                         : 2 829 kb/s
Movie name                               : [RH] Nora to Oujo to Noraneko Heart - 01 [WebRip] [Hi10] [1080p]
Encoded date                             : UTC 2017-07-21 13:42:43
Writing application                      : mkvmerge v13.0.0 ('The Juggler') 64bit
Writing library                          : libebml v1.3.4 + libmatroska v1.4.5
Attachments                              : RH Sans.ttf / LT_5.ttf

Video
ID                                       : 1
Format                                   : AVC
Format/Info                              : Advanced Video Codec
Format profile                           : High 10@L5.2
Format settings, CABAC                   : Yes
Format settings, ReFrames                : 16 frames
Codec ID                                 : V_MPEG4/ISO/AVC
Duration                                 : 3 min 30 s
Bit rate                                 : 2 683 kb/s
Width                                    : 1 920 pixels
Height                                   : 1 080 pixels
Display aspect ratio                     : 16:9
Frame rate mode                          : Constant
Frame rate                               : 29.970 (30000/1001) FPS
Color space                              : YUV
Chroma subsampling                       : 4:2:0
Bit depth                                : 10 bits
Scan type                                : Progressive
Bits/(Pixel*Frame)                       : 0.043
Stream size                              : 67.2 MiB (95%)
Title                                    : Hi10 1080p h.264
Writing library                          : x264 core 148
Encoding settings                        : cabac=1 / ref=16 / deblock=1:1:1 / analyse=0x3:0x133 / me=umh / subme=10 / psy=1 / psy_rd=0.40:0.00 / mixed_ref=1 / me_range=24 / chroma_me=1 / trellis=2 / 8x8dct=1 / cqm=0 / deadzone=21,11 / fast_pskip=1 / chroma_qp_offset=-2 / threads=9 / lookahead_threads=2 / sliced_threads=0 / nr=0 / decimate=1 / interlaced=0 / bluray_compat=0 / constrained_intra=0 / bframes=10 / b_pyramid=2 / b_adapt=2 / b_bias=0 / direct=3 / weightb=1 / open_gop=0 / weightp=2 / keyint=300 / keyint_min=30 / scenecut=40 / intra_refresh=0 / rc_lookahead=60 / rc=crf / mbtree=1 / crf=16.0 / qcomp=0.60 / qpmin=0 / qpmax=81 / qpstep=4 / vbv_maxrate=720000 / vbv_bufsize=720000 / crf_max=0.0 / nal_hrd=none / filler=0 / ip_ratio=1.40 / aq=1:0.60
Language                                 : Japanese
Default                                  : Yes
Forced                                   : No
Color range                              : Limited
Color primaries                          : BT.709
Transfer characteristics                 : BT.709
Matrix coefficients                      : BT.709

Audio
ID                                       : 2
Format                                   : AAC
Format/Info                              : Advanced Audio Codec
Format profile                           : LC
Codec ID                                 : A_AAC
Duration                                 : 3 min 30 s
Bit rate                                 : 128 kb/s
Channel(s)                               : 2 channels
Channel positions                        : Front: L R
Sampling rate                            : 44.1 kHz
Frame rate                               : 43.066 FPS (1024 spf)
Compression mode                         : Lossy
Stream size                              : 3.21 MiB (5%)
Title                                    : 2.0 AAC
Language                                 : Japanese
Default                                  : Yes
Forced                                   : No

Text
ID                                       : 3
Format                                   : ASS
Codec ID                                 : S_TEXT/ASS
Codec ID/Info                            : Advanced Sub Station Alpha
Duration                                 : 3 min 29 s
Bit rate                                 : 149 b/s
Count of elements                        : 63
Compression mode                         : Lossless
Stream size                              : 3.81 KiB (0%)
Title                                    : RH
Language                                 : English
Default                                  : Yes
Forced                                   : No

Menu
00:00:00.000                             : en:Intro
00:00:12.646                             : en:OP
00:01:00.227                             : en:Episode
00:03:21.201                             : en:A Cat's Thoughts

Other Files in this Torrent
[RH] Nora to Oujo to Noraneko Heart - 01 [DFF54859].mkv
beta
Anime DDL+NZB mirror
Current Time: 14/12/2019 13:15



About/FAQs