[RH] Nora to Oujo to Noraneko Heart - 11 [62A8AA1F].mkv


File Size114.0 MB (119,539,673 bytes)
DownloadClickNUpload | Go4Up | Jheberg | MultiUp
  • ClickNupload
  • Fichier
  • Filerio
  • Free
  • Fufox
  • HugeFiles
  • Mightyupload
  • ToutBox
  • Turbobit
  • UpToBox
  • Uplea
  • UploadBaz
  • Uploadable
  • Uploaded
  • Uppit
  • Userscloud
  • ZippyShare
| OpenLoad | Sendspace | SolidFiles
Encrypted DownloadDirect
Password:
HashesCRC32: 62A8AA1F, MD5: 041B3EB63253A9846BD3A612C28D70F5, SHA1: 0D813E08404C649B37A4F9DD1CB3D3D1561B39C5, SHA256: 0737580FEE192FCA12F6F4717949C8240594959F873DC6E6C78C3B1D45F3E217, ED2K: 5115F5FD90E9AAF746E19945176368F5
Screenshots
screenshotscreenshotscreenshotscreenshot
SubtitlesAll Attachments | RH [eng, ASS]
Additional Info
General
Unique ID                                : 222171389435707902873803734891223667947 (0xA724A73626C21FEAB2E3E2B763BD54EB)
Complete name                            : [RH] Nora to Oujo to Noraneko Heart - 11 [62A8AA1F].mkv
Format                                   : Matroska
Format version                           : Version 4 / Version 2
File size                                : 114 MiB
Duration                                 : 3 min 30 s
Overall bit rate                         : 4 551 kb/s
Movie name                               : [RH] Nora to Oujo to Noraneko Heart - 11 [WebRip] [Hi10] [1080p]
Encoded date                             : UTC 2017-09-26 23:03:44
Writing application                      : mkvmerge v15.0.0 ('Duel with the Devil') 64-bit
Writing library                          : libebml v1.3.5 + libmatroska v1.4.5
Attachments                              : LT_5.ttf / RH-Sans.ttf

Video
ID                                       : 1
Format                                   : AVC
Format/Info                              : Advanced Video Codec
Format profile                           : High 10@L5.2
Format settings, CABAC                   : Yes
Format settings, ReFrames                : 16 frames
Codec ID                                 : V_MPEG4/ISO/AVC
Duration                                 : 3 min 30 s
Bit rate                                 : 4 413 kb/s
Width                                    : 1 920 pixels
Height                                   : 1 080 pixels
Display aspect ratio                     : 16:9
Frame rate mode                          : Constant
Frame rate                               : 29.970 (30000/1001) FPS
Color space                              : YUV
Chroma subsampling                       : 4:2:0
Bit depth                                : 10 bits
Scan type                                : Progressive
Bits/(Pixel*Frame)                       : 0.071
Stream size                              : 111 MiB (97%)
Title                                    : Hi10 1080p h.264
Writing library                          : 686172656D206F6620737475706964206769726C73
Encoding settings                        : 77616E6E61206675636B206120636174
Language                                 : Japanese
Default                                  : Yes
Forced                                   : No
Color range                              : Limited
Color primaries                          : BT.709
Transfer characteristics                 : BT.709
Matrix coefficients                      : BT.709

Audio
ID                                       : 2
Format                                   : AAC
Format/Info                              : Advanced Audio Codec
Format profile                           : LC
Codec ID                                 : A_AAC
Duration                                 : 3 min 30 s
Bit rate                                 : 128 kb/s
Channel(s)                               : 2 channels
Channel positions                        : Front: L R
Sampling rate                            : 44.1 kHz
Frame rate                               : 43.066 FPS (1024 spf)
Compression mode                         : Lossy
Stream size                              : 3.21 MiB (3%)
Title                                    : 2.0 AAC
Language                                 : Japanese
Default                                  : Yes
Forced                                   : No

Text
ID                                       : 3
Format                                   : ASS
Codec ID                                 : S_TEXT/ASS
Codec ID/Info                            : Advanced Sub Station Alpha
Duration                                 : 2 min 32 s
Bit rate                                 : 124 b/s
Count of elements                        : 45
Compression mode                         : Lossless
Stream size                              : 2.31 KiB (0%)
Title                                    : RH
Language                                 : English
Default                                  : Yes
Forced                                   : No

Menu
00:00:00.000                             : en:OP
00:00:48.081                             : en:Episode
00:03:19.666                             : en:A Cat's Thoughts

Other Files in this Torrent
[RH] Nora to Oujo to Noraneko Heart - 11 [62A8AA1F].mkv
beta
Anime DDL+NZB mirror
Current Time: 05/12/2019 17:23



About/FAQs