Pon no Michi | EPISODE 8 - Turn on the Light (ENGLISH SUB) [Emc1UL4-Poo].mp4


File Size217.2 MB (227,802,373 bytes)
DownloadClickNUpload | DailyUploads | DownloadGG | GoFile | KrakenFiles | MdiaLoad | MultiUp
  • BdUpload
  • DownAce
  • Fichier
  • FileCloud
  • Filerio
  • FilesCdn
  • IndiShare
  • Kbagi
  • Turbobit
  • UpToBox
  • Uppit
| Uppit
HashesCRC32: C5F00E35, MD5: 950B448D11EE3A9A131C235F9C6EA617, SHA1: EAE1A559B793E2E296868700E5E30624D7FBBE3B, SHA256: A6CEEE6BAA0B4DA718093D443B75E62D52F7F39783AFF5612BFAB3C130535993, ED2K: DFCFF904BC73E1CDD32A3D09FDE9AE2F
Screenshots
screenshotscreenshotscreenshotscreenshotscreenshot
Additional Info
General
Complete name                            : Pon no Michi | EPISODE 8 - Turn on the Light (ENGLISH SUB) [Emc1UL4-Poo].mp4
Format                                   : MPEG-4
Format profile                           : Base Media
Codec ID                                 : isom (isom/iso2/avc1/mp41)
File size                                : 217 MiB
Duration                                 : 24 min 20 s
Overall bit rate                         : 1 247 kb/s
Frame rate                               : 23.976 FPS
Writing application                      : Lavf59.34.101

Video
ID                                       : 1
Format                                   : AVC
Format/Info                              : Advanced Video Codec
Format profile                           : High@L4
Format settings                          : CABAC / 3 Ref Frames
Format settings, CABAC                   : Yes
Format settings, Reference frames        : 3 frames
Codec ID                                 : avc1
Codec ID/Info                            : Advanced Video Coding
Duration                                 : 24 min 20 s
Bit rate                                 : 1 113 kb/s
Width                                    : 1 920 pixels
Height                                   : 1 080 pixels
Display aspect ratio                     : 16:9
Frame rate mode                          : Variable
Frame rate                               : 23.976 (24000/1001) FPS
Minimum frame rate                       : 23.974 FPS
Maximum frame rate                       : 23.981 FPS
Color space                              : YUV
Chroma subsampling                       : 4:2:0
Bit depth                                : 8 bits
Scan type                                : Progressive
Bits/(Pixel*Frame)                       : 0.022
Stream size                              : 194 MiB (89%)
Color range                              : Limited
Color primaries                          : BT.709
Transfer characteristics                 : BT.709
Matrix coefficients                      : BT.709
mdhd_Duration                            : 1460876
Codec configuration box                  : avcC

Audio
ID                                       : 2
Format                                   : AAC LC
Format/Info                              : Advanced Audio Codec Low Complexity
Codec ID                                 : mp4a-40-2
Duration                                 : 24 min 20 s
Bit rate mode                            : Constant
Bit rate                                 : 128 kb/s
Channel(s)                               : 2 channels
Channel layout                           : L R
Sampling rate                            : 44.1 kHz
Frame rate                               : 43.066 FPS (1024 SPF)
Compression mode                         : Lossy
Stream size                              : 22.3 MiB (10%)
Title                                    : ISO Media file produced by Google Inc.
Language                                 : English
Default                                  : Yes
Alternate group                          : 1

Other Files in this Torrent
Pon no Michi | EPISODE 8 - Turn on the Light (ENGLISH SUB) [Emc1UL4-Poo].mp4
beta
Anime DDL+NZB mirror
Current Time: 13/07/2024 12:11



About/FAQs

Discord