Pon no Michi | EPISODE 6 - Training Camp! (ENGLISH SUB) [VcLxj_DiadU].mp4


File Size275.7 MB (289,139,744 bytes)
DownloadClickNUpload | DailyUploads | DownloadGG | GoFile | KrakenFiles | MdiaLoad | MultiUp
  • BdUpload
  • DownAce
  • Fichier
  • FileCloud
  • Filerio
  • FilesCdn
  • IndiShare
  • Kbagi
  • Turbobit
  • UpToBox
  • Uppit
| Uppit
HashesCRC32: 170B725D, MD5: 29F781224E93CE58085557A387028D56, SHA1: 9270C8B14AF69AF22B8D857B140C201DDEA29380, SHA256: 22FF7788B20682A6A40F9AFD4AF4754C052FAB9F829D7A43E38E0498D7813AE9, ED2K: 35EB62FC8AE52852E9E8365DFA3F806B
Screenshots
screenshotscreenshotscreenshotscreenshotscreenshot
Additional Info
General
Complete name                            : Pon no Michi | EPISODE 6 - Training Camp! (ENGLISH SUB) [VcLxj_DiadU].mp4
Format                                   : MPEG-4
Format profile                           : Base Media
Codec ID                                 : isom (isom/iso2/avc1/mp41)
File size                                : 276 MiB
Duration                                 : 24 min 35 s
Overall bit rate                         : 1 567 kb/s
Frame rate                               : 23.976 FPS
Writing application                      : Lavf59.34.101

Video
ID                                       : 1
Format                                   : AVC
Format/Info                              : Advanced Video Codec
Format profile                           : High@L4
Format settings                          : CABAC / 3 Ref Frames
Format settings, CABAC                   : Yes
Format settings, Reference frames        : 3 frames
Codec ID                                 : avc1
Codec ID/Info                            : Advanced Video Coding
Duration                                 : 24 min 35 s
Bit rate                                 : 1 433 kb/s
Width                                    : 1 920 pixels
Height                                   : 1 080 pixels
Display aspect ratio                     : 16:9
Frame rate mode                          : Variable
Frame rate                               : 23.976 (24000/1001) FPS
Minimum frame rate                       : 23.974 FPS
Maximum frame rate                       : 23.981 FPS
Color space                              : YUV
Chroma subsampling                       : 4:2:0
Bit depth                                : 8 bits
Scan type                                : Progressive
Bits/(Pixel*Frame)                       : 0.029
Stream size                              : 252 MiB (91%)
Color range                              : Limited
Color primaries                          : BT.709
Transfer characteristics                 : BT.709
Matrix coefficients                      : BT.709
mdhd_Duration                            : 1475891
Codec configuration box                  : avcC

Audio
ID                                       : 2
Format                                   : AAC LC
Format/Info                              : Advanced Audio Codec Low Complexity
Codec ID                                 : mp4a-40-2
Duration                                 : 24 min 35 s
Bit rate mode                            : Constant
Bit rate                                 : 128 kb/s
Channel(s)                               : 2 channels
Channel layout                           : L R
Sampling rate                            : 44.1 kHz
Frame rate                               : 43.066 FPS (1024 SPF)
Compression mode                         : Lossy
Stream size                              : 22.5 MiB (8%)
Title                                    : ISO Media file produced by Google Inc.
Language                                 : English
Default                                  : Yes
Alternate group                          : 1

Other Files in this Torrent
Pon no Michi | EPISODE 6 - Training Camp! (ENGLISH SUB) [VcLxj_DiadU].mp4
beta
Anime DDL+NZB mirror
Current Time: 18/06/2024 14:15



About/FAQs

Discord